Ивановский Торрент трекер
Яндекс.Погода
 

[Цитировать]
HUNTER

Blender уроки (видеомонтаж) Год выпуска: 2012
Производитель: 2DHD
Сайт производителя: http://2dhd.ru/
Автор: Андрей Росяев

Продолжительность: 1:07:01
Тип раздаваемого материала: Видеоурок
Язык: Русский
Описание:
Видеоуроки представляют собой вводный курс по работе с трекингом, всего за 1 час видеоуроков вы научитесь использовать в видео любые 3d элементы. Если понравилась работа с видео в подобном стиле, советую изучить программу after effects, например удаление фона в ae раза в два быстрее и раз в 5 эффективнее.
Все материалы используемые в уроках, прилагаются.
Критику, пожелания, вопросы оставляйте лучше в комментариях на ютубе.

Содержание

1. Отслеживание камеры
2. Замена фона
3. Отслеживание объекта

MediaInfo

Уроки
Общее
Формат : MPEG-4
Профиль формата : Base Media / Version 1
Идентификатор кодека : mp41
Размер файла : 1,50 Гбайт
Продолжительность : 33 м.
Режим общего битрейта : Переменный
Общий поток : 6463 Кбит/сек
Дата кодирования : UTC 2012-09-20 13:19:16
Дата пометки : UTC 2012-09-20 13:19:16
Видео
Идентификатор : 1
Формат : AVC
Формат/Информация : Advanced Video Codec
Профиль формата : High@L5.0
Параметр CABAC формата : Да
Параметр ReFrames формата : 2 кадра
Режим смешивания : Container profile=Baseline@3.0
Идентификатор кодека : avc1
Идентификатор кодека/Информация : Advanced Video Coding
Продолжительность : 33 м.
Вид битрейта : Переменный
Битрейт : 6316 Кбит/сек
Максимальный битрейт : 59,6 Мбит/сек
Ширина : 1680 пикселей
Высота : 1050 пикселей
Соотношение сторон : 1,600
Частота кадров : 30,000 кадров/сек
Цветовое пространство : YUV
Субдискретизация насыщенности : 4:2:0
Битовая глубина : 8 бит
Тип развёртки : Прогрессивная
Бит/(Пиксели*Кадры) : 0.119
Размер потока : 1,46 Гбайт (98%)
Язык : English
Дата кодирования : UTC 2012-09-20 13:19:16
Дата пометки : UTC 2012-09-20 13:19:16
Аудио
Идентификатор : 2
Формат : AAC
Формат/Информация : Advanced Audio Codec
Профиль формата : LC
Идентификатор кодека : 40
Продолжительность : 33 м.
Вид битрейта : Постоянный
Битрейт : 128 Кбит/сек
Каналы : 2 канала
Расположение каналов : Front: L R
Частота : 48,0 КГц
Метод сжатия : С потерями
Размер потока : 30,4 Мбайт (2%)
Язык : English
Дата кодирования : UTC 2012-09-20 13:19:16
Дата пометки : UTC 2012-09-20 13:19:16

Исходники

Формат : AVI
Формат/Информация : Audio Video Interleave
Размер файла : 21,8 Мбайт
Продолжительность : 8 с. 108 мс.
Общий поток : 22,6 Мбит/сек
Видео
Идентификатор : 0
Формат : JPEG
Идентификатор кодека : MJPG
Продолжительность : 8 с. 108 мс.
Битрейт : 22,2 Мбит/сек
Ширина : 1280 пикселей
Высота : 720 пикселей
Соотношение сторон : 16:9
Частота кадров : 29,970 кадров/сек
Цветовое пространство : YUV
Субдискретизация насыщенности : 4:2:2
Битовая глубина : 8 бит
Тип развёртки : Прогрессивная
Метод сжатия : С потерями
Бит/(Пиксели*Кадры) : 0.805
Размер потока : 21,5 Мбайт (98%)
Аудио
Идентификатор : 1
Формат : PCM
Параметр Endianness формата : Little
Параметр Sign формата : Signed
Идентификатор кодека : 1
Продолжительность : 8 с. 104 мс.
Вид битрейта : Постоянный
Битрейт : 352,8 Кбит/сек
Каналы : 1 канал
Частота : 22,05 КГц
Битовая глубина : 16 бит
Размер потока : 349 Кбайт (2%)
Продолжительность промежутка : 33 мс. (1,00 видеокадр)

Скриншоты



Показать сообщения:    

Текущее время: 21-Сен 16:52

Часовой пояс: UTC - 1


Вы не можете начинать темы
Вы не можете отвечать на сообщения
Вы не можете редактировать свои сообщения
Вы не можете удалять свои сообщения
Вы не можете голосовать в опросах
Вы не можете прикреплять файлы к сообщениям
Вы не можете скачивать файлы

!ВНИМАНИЕ!
Сайт не предоставляет электронные версии произведений, а занимается лишь коллекционированием и каталогизацией ссылок, присылаемых и публикуемых на форуме нашими читателями. Если вы являетесь правообладателем какого-либо представленного материала и не желаете, чтобы ссылка на него находилась в нашем каталоге, свяжитесь с нами, и мы незамедлительно удалим ее. Файлы для обмена на трекере предоставлены пользователями сайта, и администрация не несет ответственности за их содержание. Просьба не заливать файлы, защищенные авторскими правами, а также файлы нелегального содержания!