Важное объявление!
У Нас Все раздачи мультитрекерные, при нуле пиров в релизах, можете смело вставать на закачку!
 
Автор Сообщение

HUNTER

Стаж:
4 года 4 месяца
Сообщений:
56798

Репутация: 101

[+] [-]
Вне форума [Профиль] [ЛС]

| Все релизы мультфильма || BDRip 1080p, 8.71 GB |- P R E S E N T SРио 2 / Rio 2 -
Страна: США
Жанр: мультфильм, комедия, приключения, семейный
Продолжительность: 01:41:11
Год выпуска: 2014
Перевод: Профессиональный (полное дублирование)
Субтитры: есть-Режиссёр: Карлос Салдана / Carlos Saldanha
Роли озвучивали: Энн Хэтэуэй, Джесси Айзенберг, Джейк Т. Остин, Карлиньюс Браун, Кристин Ченоуэт, Джемейн Клемент, Джим Конрой, Рэйчел Кроу, Бернардо де Паула, Нола Донкин, Мигель Феррер, Джейми Фокс, Пирс Гэнон, Энди Гарсиа, Джеффри Гарсиа, Бебель Гилберто, Джордж Лопес, Лесли Манн, Бруно Марс, Трэйси Морган, Родриго Санторо, Амандла Стенберг, Уилл Ай Эм...
Роли дублировали: Татьяна Шилина, Павел Деревянко, Олег Куценко, Ульяна Иващенко, Илья Колесников, Сергей Чихачев, Никита Прозоровский, Марианна Шульц, Пётр Иващенко, Александр Коврижных, Илья Исаев, Анна Денисова, Аркадий Джем, Борис Быстров, Елена Шульман, Ирина Савина, Лариса Некипелова и др.- | | - Нет возрастных ограничений-Описание: Голубчик, Жемчужинка и их трое детей живут счастливой жизнью в волшебном городе Рио-де-Жанейро. Когда Жемчужинка решает, что их детям нужно научиться жить как настоящим птицам, она настаивает на авантюрной поездке в дебри реки Амазонки. Там, пытаясь вписаться в новое окружение, Голубчик начинает беспокоиться, что может потерять Жемчужинку и детей, идущих на зов дикой природы...-Доп. информация: BDRip 1080p сделан с Blu-Ray диска Rio 2 (2014) Blu-ray EUR 1080p AVC DTS 5.1 (Локализованный видеоряд).
Отдельное спасибо xfiles за подготовку русских и украинских субтитров.
-Сэмпл/Sample (109 MB, 1 минута)-Качество: BDRip 1080p
Формат: MKV
Видео: 1920x800 (2.40:1), 23,976 fps, ~9594 kbps avg, 0.261 bit/pixel
Аудио #1: Русский, DTS / 5.1 / 48 kHz / 768 kbps / 24-bit - Дубляж | BD EUR
Аудио #2: Украинский, AC3, 6 ch, 48 kHz, 448 kbps - Дубляж | BD EUR
Аудио #3: English, DTS-ES / 5.1 / 48 kHz / 1509 kbps / 24-bit - Original
Субтитры: Русские (полные, форсированные), Украинские (полные), English (Full, SDH, Forced)
Навигация по главам: есть (32 не именованные главы)
MediaInfo / x264Log
x264Log
raw [info]: 1920x800p 1:1 @ 24000/1001 fps (cfr)x264 [info]: using SAR=1/1x264 [info]: using cpu capabilities: MMX2 SSE2Fast SSSE3 SSE4.2 AVX XOP FMA4 FMA3 LZCNT BMI1x264 [info]: profile High, level 4.1x264 [info]: frame I:1205 Avg QP:14.01 size:267633 PSNR Mean Y:49.32 U:51.02 V:51.26 Avg:49.83 Global:49.40x264 [info]: frame P:42607 Avg QP:16.15 size: 84037 PSNR Mean Y:47.35 U:49.71 V:50.02 Avg:48.02 Global:47.58x264 [info]: frame B:101751 Avg QP:18.90 size: 33199 PSNR Mean Y:46.49 U:49.26 V:49.65 Avg:47.25 Global:46.70x264 [info]: consecutive B-frames: 3.5% 5.1% 38.1% 25.9% 11.7% 12.3% 2.6% 0.2% 0.2% 0.1% 0.2% 0.2%x264 [info]: mb I I16..4: 13.0% 56.6% 30.4%x264 [info]: mb P I16..4: 3.2% 17.0% 4.1% P16..4: 25.6% 25.3% 9.7% 2.7% 0.3% skip:12.1%x264 [info]: mb B I16..4: 0.9% 4.1% 0.8% B16..8: 27.5% 16.0% 2.7% direct: 7.2% skip:40.6% L0:34.4% L1:45.2% BI:20.4%x264 [info]: 8x8 transform intra:69.2% inter:42.6%x264 [info]: coded y,uvDC,uvAC intra: 90.1% 90.6% 72.6% inter: 24.7% 19.0% 5.3%x264 [info]: i16 v,h,dc,p: 9% 7% 19% 65%x264 [info]: i8 v,h,dc,ddl,ddr,vr,hd,vl,hu: 10% 13% 9% 8% 11% 11% 12% 12% 15%x264 [info]: i4 v,h,dc,ddl,ddr,vr,hd,vl,hu: 10% 10% 12% 8% 13% 12% 13% 10% 13%x264 [info]: i8c dc,h,v,p: 37% 24% 18% 21%x264 [info]: Weighted P-Frames: Y:1.8% UV:1.4%x264 [info]: ref P L0: 64.7% 12.1% 15.1% 6.0% 2.0% 0.0%x264 [info]: ref B L0: 86.8% 11.4% 1.8%x264 [info]: ref B L1: 92.3% 7.7%x264 [info]: SSIM Mean Y:0.9882436 (19.297db)x264 [info]: PSNR Mean Y:46.767 U:49.404 V:49.775 Avg:47.495 Global:46.959 kb/s:9594.25encoded 145563 frames, 5.42 fps, 9594.25 kb/s
GeneralUnique ID : 172263197500861843883924084887265257470 (0x8198AF5EAB32160CB13898026B8CA7FE)Complete name : Rio.II.2014.Rus.Video.BDRip.1080p.dfcbit.mkvFormat : MatroskaFormat version : Version 2File size : 8.71 GiBDuration : 1h 41mnOverall bit rate : 12.3 MbpsEncoded date : UTC 2014-07-07 18:58:48Writing application : mkvmerge v4.0.0 ('The Stars were mine') built on Jun 6 2010 16:18:42Writing library : libebml v1.0.0 + libmatroska v1.0.0
VideoID : 1Format : AVCFormat/Info : Advanced Video CodecFormat profile : High@L4.1Format settings, CABAC : YesFormat settings, ReFrames : 4 framesCodec ID : V_MPEG4/ISO/AVCDuration : 1h 41mnBit rate : 9 594 KbpsWidth : 1 920 pixelsHeight : 800 pixelsDisplay aspect ratio : 2.40:1Frame rate mode : ConstantFrame rate : 23.976 fpsColor space : YUVChroma subsampling : 4:2:0Bit depth : 8 bitsScan type : ProgressiveBits/(Pixel*Frame) : 0.261Stream size : 6.78 GiB (76%)Title : NTSC, 1920x800 (2.40:1), BDRip 1080p - tRuAVC & Multfilmy [DFCbit]Writing library : x264 core 142 r2431kMod ac76440Encoding settings : cabac=1 / ref=4 / deblock=1:-1:-1 / analyse=0x3:0x133 / me=umh / subme=11 / psy=1 / fade_compensate=0.00 / psy_rd=0.63:0.00 / mixed_ref=1 / me_range=32 / chroma_me=1 / trellis=2 / 8x8dct=1 / cqm=0 / deadzone=21,11 / fast_pskip=0 / chroma_qp_offset=-2 / threads=12 / lookahead_threads=3 / sliced_threads=0 / nr=0 / decimate=1 / interlaced=0 / bluray_compat=0 / constrained_intra=0 / fgo=0 / bframes=11 / b_pyramid=2 / b_adapt=2 / b_bias=0 / direct=1 / weightb=1 / open_gop=0 / weightp=2 / keyint=250 / keyint_min=23 / scenecut=40 / intra_refresh=0 / rc_lookahead=70 / rc=2pass / mbtree=0 / bitrate=9594 / ratetol=1.0 / qcomp=0.81 / qpmin=0 / qpmax=69 / qpstep=4 / cplxblur=20.0 / qblur=0.5 / vbv_maxrate=50000 / vbv_bufsize=62500 / nal_hrd=none / filler=0 / ip_ratio=1.40 / pb_ratio=1.30 / aq=3:0.90Language : RussianDefault : YesForced : NoColor primaries : BT.709Transfer characteristics : BT.709Matrix coefficients : BT.709
Audio #1ID : 2Format : DTSFormat/Info : Digital Theater SystemsMode : 16Format settings, Endianness : BigCodec ID : A_DTSDuration : 1h 41mnBit rate mode : ConstantBit rate : 768 KbpsChannel(s) : 6 channelsChannel positions : Front: L C R, Side: L R, LFESampling rate : 48.0 KHzBit depth : 24 bitsCompression mode : LossyStream size : 556 MiB (6%)Title : DTS / 5.1 / 48 kHz / 768 kbps / 24-bit - Дубляж | BD EURLanguage : RussianDefault : YesForced : No
Audio #2ID : 3Format : AC-3Format/Info : Audio Coding 3Mode extension : CM (complete main)Format settings, Endianness : BigCodec ID : A_AC3Duration : 1h 41mnBit rate mode : ConstantBit rate : 448 KbpsChannel(s) : 6 channelsChannel positions : Front: L C R, Side: L R, LFESampling rate : 48.0 KHzBit depth : 16 bitsCompression mode : LossyStream size : 324 MiB (4%)Title : AC3, 6 ch, 48 kHz, 448 kbps - Дубляж | BD EURLanguage : UkrainianDefault : NoForced : No
Audio #3ID : 4Format : DTSFormat/Info : Digital Theater SystemsFormat profile : ESMode : 16Format settings, Endianness : BigCodec ID : A_DTSDuration : 1h 41mnBit rate mode : ConstantBit rate : 1 509 KbpsChannel(s) : 6 channelsChannel positions : Front: L C R, Side: L R, LFESampling rate : 48.0 KHzBit depth : 24 bitsCompression mode : LossyStream size : 1.07 GiB (12%)Title : DTS-ES / 5.1 / 48 kHz / 1509 kbps / 24-bit - OriginalLanguage : EnglishDefault : NoForced : No
Text #1ID : 5Format : UTF-8Codec ID : S_TEXT/UTF8Codec ID/Info : UTF-8 Plain TextTitle : SRT, ПолныеLanguage : RussianDefault : NoForced : No
Text #2ID : 6Format : UTF-8Codec ID : S_TEXT/UTF8Codec ID/Info : UTF-8 Plain TextTitle : SRT, ФорсированныеLanguage : RussianDefault : NoForced : No
Text #3ID : 7Format : UTF-8Codec ID : S_TEXT/UTF8Codec ID/Info : UTF-8 Plain TextTitle : SRT, ПолныеLanguage : UkrainianDefault : NoForced : No
Text #4ID : 8Format : UTF-8Codec ID : S_TEXT/UTF8Codec ID/Info : UTF-8 Plain TextTitle : SRT, FullLanguage : EnglishDefault : NoForced : No
Text #5ID : 9Format : UTF-8Codec ID : S_TEXT/UTF8Codec ID/Info : UTF-8 Plain TextTitle : SRT, (SDH)Language : EnglishDefault : NoForced : No
Text #6ID : 10Format : UTF-8Codec ID : S_TEXT/UTF8Codec ID/Info : UTF-8 Plain TextTitle : SRT, ForcedLanguage : EnglishDefault : NoForced : No
Menu00:00:00.000 : en:Chapter 100:03:10.816 : en:Chapter 200:05:14.314 : en:Chapter 300:08:49.362 : en:Chapter 400:13:02.240 : en:Chapter 500:17:36.305 : en:Chapter 600:19:19.408 : en:Chapter 700:22:30.349 : en:Chapter 800:26:48.690 : en:Chapter 900:29:00.155 : en:Chapter 1000:30:59.691 : en:Chapter 1100:33:46.566 : en:Chapter 1200:36:34.192 : en:Chapter 1300:39:20.233 : en:Chapter 1400:41:32.657 : en:Chapter 1500:45:05.119 : en:Chapter 1600:47:23.090 : en:Chapter 1700:49:58.162 : en:Chapter 1800:52:05.456 : en:Chapter 1900:55:38.919 : en:Chapter 2000:58:10.904 : en:Chapter 2101:02:11.394 : en:Chapter 2201:04:38.083 : en:Chapter 2301:07:03.937 : en:Chapter 2401:09:18.196 : en:Chapter 2501:10:21.342 : en:Chapter 2601:15:17.763 : en:Chapter 2701:17:00.157 : en:Chapter 2801:21:41.855 : en:Chapter 2901:25:24.619 : en:Chapter 3001:29:42.711 : en:Chapter 3101:32:27.959 : en:Chapter 32

Скриншоты

Скриншот с названием мультфильма / Локализация

--BDRip 1080p


Source Blu-Ray

Релиз от групп | and |

_________________
Показать сообщения:    

Текущее время: Сегодня 05:08

Часовой пояс: GMT



Вы не можете начинать темы
Вы не можете отвечать на сообщения
Вы не можете редактировать свои сообщения
Вы не можете удалять свои сообщения
Вы не можете голосовать в опросах
Вы не можете прикреплять файлы к сообщениям
Вы не можете скачивать файлы