Важное объявление!
У Нас Все раздачи мультитрекерные, при нуле пиров в релизах, можете смело вставать на закачку!
 
Автор Сообщение

HUNTER

Стаж:
4 года 4 месяца
Сообщений:
56808

Репутация: 101

[+] [-]
Вне форума [Профиль] [ЛС]

| Все релизы мультфильма || BDRip-AVC, 2.94 GB |- P R E S E N T SРио 2 / Rio 2 -
Страна: США
Жанр: мультфильм, комедия, приключения, семейный
Продолжительность: 01:41:11
Год выпуска: 2014
Перевод: Профессиональный (полное дублирование)
Субтитры: есть-Режиссёр: Карлос Салдана / Carlos Saldanha
Роли озвучивали: Энн Хэтэуэй, Джесси Айзенберг, Джейк Т. Остин, Карлиньюс Браун, Кристин Ченоуэт, Джемейн Клемент, Джим Конрой, Рэйчел Кроу, Бернардо де Паула, Нола Донкин, Мигель Феррер, Джейми Фокс, Пирс Гэнон, Энди Гарсиа, Джеффри Гарсиа, Бебель Гилберто, Джордж Лопес, Лесли Манн, Бруно Марс, Трэйси Морган, Родриго Санторо, Амандла Стенберг, Уилл Ай Эм...
Роли дублировали: Татьяна Шилина, Павел Деревянко, Олег Куценко, Ульяна Иващенко, Илья Колесников, Сергей Чихачев, Никита Прозоровский, Марианна Шульц, Пётр Иващенко, Александр Коврижных, Илья Исаев, Анна Денисова, Аркадий Джем, Борис Быстров, Елена Шульман, Ирина Савина, Лариса Некипелова и др.- | | - Нет возрастных ограничений-Описание: Голубчик, Жемчужинка и их трое детей живут счастливой жизнью в волшебном городе Рио-де-Жанейро. Когда Жемчужинка решает, что их детям нужно научиться жить как настоящим птицам, она настаивает на авантюрной поездке в дебри реки Амазонки. Там, пытаясь вписаться в новое окружение, Голубчик начинает беспокоиться, что может потерять Жемчужинку и детей, идущих на зов дикой природы...-Доп. информация: BDRip-AVC 470p сделан с Blu-Ray диска Rio 2 (2014) Blu-ray EUR 1080p AVC DTS 5.1 (Локализованный видеоряд).
Отдельное спасибо xfiles за подготовку русских и украинских субтитров.
-Сэмпл/Sample (37.4 MB, 1 минута)-Качество: BDRip-AVC
Формат: MKV
Видео: 1128x470 (2.40:1), 23,976 fps, ~2817 kbps avg, 0.222 bit/pixel
Аудио #1: Русский, AC3, 6 ch, 48 kHz, 448 kbps - Дубляж | BD EUR
Аудио #2: Украинский, AC3, 6 ch, 48 kHz, 448 kbps - Дубляж | BD EUR
Аудио #3: English, AC3 EX, 6 ch, 48 kHz, 448 kbps - Original
Субтитры: Русские (полные, форсированные), Украинские (полные), English (Full, SDH, Forced)
Навигация по главам: есть (32 не именованные главы)
MediaInfo / x264Log
x264Log
raw [info]: 1128x470p 1:1 @ 24000/1001 fps (cfr)x264 [info]: using SAR=1/1x264 [info]: using cpu capabilities: MMX2 SSE2Fast SSSE3 SSE4.2 AVX XOP FMA4 FMA3 LZCNT BMI1x264 [info]: profile High, level 4.1x264 [info]: frame I:1223 Avg QP:15.47 size: 98941 PSNR Mean Y:47.67 U:49.38 V:49.61 Avg:48.19 Global:47.76x264 [info]: frame P:38516 Avg QP:18.23 size: 26900 PSNR Mean Y:45.84 U:47.81 V:48.17 Avg:46.42 Global:45.89x264 [info]: frame B:105824 Avg QP:21.22 size: 9268 PSNR Mean Y:45.25 U:47.38 V:47.82 Avg:45.88 Global:45.25x264 [info]: consecutive B-frames: 3.2% 4.2% 18.3% 37.4% 15.5% 18.0% 1.4% 0.5% 0.4% 0.2% 0.2% 0.2% 0.2% 0.2%x264 [info]: mb I I16..4: 2.0% 69.0% 28.9%x264 [info]: mb P I16..4: 0.8% 15.7% 3.2% P16..4: 25.2% 25.9% 12.5% 2.7% 0.4% skip:13.7%x264 [info]: mb B I16..4: 0.2% 3.7% 0.6% B16..8: 25.4% 16.4% 3.5% direct: 4.3% skip:45.9% L0:37.2% L1:44.1% BI:18.7%x264 [info]: 8x8 transform intra:79.8% inter:61.0%x264 [info]: coded y,uvDC,uvAC intra: 89.8% 92.2% 74.7% inter: 19.2% 17.0% 6.5%x264 [info]: i16 v,h,dc,p: 12% 12% 4% 72%x264 [info]: i8 v,h,dc,ddl,ddr,vr,hd,vl,hu: 11% 12% 6% 9% 12% 11% 13% 12% 15%x264 [info]: i4 v,h,dc,ddl,ddr,vr,hd,vl,hu: 14% 10% 5% 8% 15% 13% 14% 10% 12%x264 [info]: i8c dc,h,v,p: 37% 24% 17% 22%x264 [info]: Weighted P-Frames: Y:2.8% UV:2.0%x264 [info]: ref P L0: 54.9% 13.0% 13.4% 5.8% 3.9% 2.9% 2.2% 1.3% 1.0% 0.8% 0.7% 0.1% 0.0%x264 [info]: ref B L0: 80.4% 10.0% 4.3% 1.9% 1.2% 0.8% 0.6% 0.3% 0.2% 0.1%x264 [info]: ref B L1: 93.2% 6.8%x264 [info]: SSIM Mean Y:0.9876520 (19.084db)x264 [info]: PSNR Mean Y:45.425 U:47.514 V:47.929 Avg:46.040 Global:45.426 kb/s:2817.05encoded 145563 frames, 11.80 fps, 2817.05 kb/s
GeneralUnique ID : 236724226750054272893654029339432800373 (0xB2176D7CD423B693AA769787A9675075)Complete name : Rio.II.2014.Rus.Video.BDRip-AVC.470p.dfcbit.mkvFormat : MatroskaFormat version : Version 2File size : 2.94 GiBDuration : 1h 41mnOverall bit rate : 4 164 KbpsEncoded date : UTC 2014-07-07 04:36:48Writing application : mkvmerge v4.0.0 ('The Stars were mine') built on Jun 6 2010 16:18:42Writing library : libebml v1.0.0 + libmatroska v1.0.0
VideoID : 1Format : AVCFormat/Info : Advanced Video CodecFormat profile : High@L4.1Format settings, CABAC : YesFormat settings, ReFrames : 11 framesCodec ID : V_MPEG4/ISO/AVCDuration : 1h 41mnBit rate : 2 817 KbpsWidth : 1 128 pixelsHeight : 470 pixelsDisplay aspect ratio : 2.40:1Frame rate mode : ConstantFrame rate : 23.976 fpsColor space : YUVChroma subsampling : 4:2:0Bit depth : 8 bitsScan type : ProgressiveBits/(Pixel*Frame) : 0.222Stream size : 1.99 GiB (66%)Title : NTSC, 1128x470 (2.40:1), BDRip-AVC 470p - tRuAVC & Multfilmy [DFCbit]Writing library : x264 core 142 r2431kMod ac76440Encoding settings : cabac=1 / ref=11 / deblock=1:-1:-1 / analyse=0x3:0x133 / me=umh / subme=11 / psy=1 / fade_compensate=0.00 / psy_rd=0.63:0.00 / mixed_ref=1 / me_range=32 / chroma_me=1 / trellis=2 / 8x8dct=1 / cqm=0 / deadzone=21,11 / fast_pskip=0 / chroma_qp_offset=-2 / threads=12 / lookahead_threads=3 / sliced_threads=0 / nr=0 / decimate=1 / interlaced=0 / bluray_compat=0 / constrained_intra=0 / fgo=0 / bframes=13 / b_pyramid=2 / b_adapt=2 / b_bias=0 / direct=1 / weightb=1 / open_gop=0 / weightp=2 / keyint=250 / keyint_min=23 / scenecut=40 / intra_refresh=0 / rc_lookahead=70 / rc=2pass / mbtree=0 / bitrate=2817 / ratetol=1.0 / qcomp=0.81 / qpmin=0 / qpmax=69 / qpstep=4 / cplxblur=20.0 / qblur=0.5 / vbv_maxrate=50000 / vbv_bufsize=62500 / nal_hrd=none / filler=0 / ip_ratio=1.40 / pb_ratio=1.30 / aq=3:0.90Language : RussianDefault : YesForced : NoColor primaries : BT.709Transfer characteristics : BT.709Matrix coefficients : BT.709
Audio #1ID : 2Format : AC-3Format/Info : Audio Coding 3Mode extension : CM (complete main)Format settings, Endianness : BigCodec ID : A_AC3Duration : 1h 41mnBit rate mode : ConstantBit rate : 448 KbpsChannel(s) : 6 channelsChannel positions : Front: L C R, Side: L R, LFESampling rate : 48.0 KHzBit depth : 16 bitsCompression mode : LossyStream size : 324 MiB (11%)Title : AC3, 6 ch, 48 kHz, 448 kbps - Дубляж | BD EURLanguage : RussianDefault : YesForced : No
Audio #2ID : 3Format : AC-3Format/Info : Audio Coding 3Mode extension : CM (complete main)Format settings, Endianness : BigCodec ID : A_AC3Duration : 1h 41mnBit rate mode : ConstantBit rate : 448 KbpsChannel(s) : 6 channelsChannel positions : Front: L C R, Side: L R, LFESampling rate : 48.0 KHzBit depth : 16 bitsCompression mode : LossyStream size : 324 MiB (11%)Title : AC3, 6 ch, 48 kHz, 448 kbps - Дубляж | BD EURLanguage : UkrainianDefault : NoForced : No
Audio #3ID : 4Format : AC-3Format/Info : Audio Coding 3Mode extension : CM (complete main)Format settings, Endianness : BigCodec ID : A_AC3Duration : 1h 41mnBit rate mode : ConstantBit rate : 448 KbpsChannel(s) : 6 channelsChannel positions : Front: L C R, Side: L R, LFESampling rate : 48.0 KHzBit depth : 16 bitsCompression mode : LossyStream size : 324 MiB (11%)Title : AC3 EX, 6 ch, 48 kHz, 448 kbps - OriginalLanguage : EnglishDefault : NoForced : No
Text #1ID : 5Format : UTF-8Codec ID : S_TEXT/UTF8Codec ID/Info : UTF-8 Plain TextTitle : SRT, ПолныеLanguage : RussianDefault : NoForced : No
Text #2ID : 6Format : UTF-8Codec ID : S_TEXT/UTF8Codec ID/Info : UTF-8 Plain TextTitle : SRT, ФорсированныеLanguage : RussianDefault : NoForced : No
Text #3ID : 7Format : UTF-8Codec ID : S_TEXT/UTF8Codec ID/Info : UTF-8 Plain TextTitle : SRT, ПолныеLanguage : UkrainianDefault : NoForced : No
Text #4ID : 8Format : UTF-8Codec ID : S_TEXT/UTF8Codec ID/Info : UTF-8 Plain TextTitle : SRT, FullLanguage : EnglishDefault : NoForced : No
Text #5ID : 9Format : UTF-8Codec ID : S_TEXT/UTF8Codec ID/Info : UTF-8 Plain TextTitle : SRT, (SDH)Language : EnglishDefault : NoForced : No
Text #6ID : 10Format : UTF-8Codec ID : S_TEXT/UTF8Codec ID/Info : UTF-8 Plain TextTitle : SRT, ForcedLanguage : EnglishDefault : NoForced : No
Menu00:00:00.000 : en:Chapter 100:03:10.816 : en:Chapter 200:05:14.314 : en:Chapter 300:08:49.362 : en:Chapter 400:13:02.240 : en:Chapter 500:17:36.305 : en:Chapter 600:19:19.408 : en:Chapter 700:22:30.349 : en:Chapter 800:26:48.690 : en:Chapter 900:29:00.155 : en:Chapter 1000:30:59.691 : en:Chapter 1100:33:46.566 : en:Chapter 1200:36:34.192 : en:Chapter 1300:39:20.233 : en:Chapter 1400:41:32.657 : en:Chapter 1500:45:05.119 : en:Chapter 1600:47:23.090 : en:Chapter 1700:49:58.162 : en:Chapter 1800:52:05.456 : en:Chapter 1900:55:38.919 : en:Chapter 2000:58:10.904 : en:Chapter 2101:02:11.394 : en:Chapter 2201:04:38.083 : en:Chapter 2301:07:03.937 : en:Chapter 2401:09:18.196 : en:Chapter 2501:10:21.342 : en:Chapter 2601:15:17.763 : en:Chapter 2701:17:00.157 : en:Chapter 2801:21:41.855 : en:Chapter 2901:25:24.619 : en:Chapter 3001:29:42.711 : en:Chapter 3101:32:27.959 : en:Chapter 32
Скриншоты
Скриншот с названием мультфильма / Локализация

--BDRip-AVC


Source Blu-Ray

Релиз от групп | and | -Данный релиз не будет воспроизводиться на бытовых плеерах не поддерживающих MKV и H.264

_________________
Показать сообщения:    

Текущее время: Сегодня 15:05

Часовой пояс: GMT



Вы не можете начинать темы
Вы не можете отвечать на сообщения
Вы не можете редактировать свои сообщения
Вы не можете удалять свои сообщения
Вы не можете голосовать в опросах
Вы не можете прикреплять файлы к сообщениям
Вы не можете скачивать файлы