Ивановский Торрент трекер
Яндекс.Погода
 

[Цитировать]
HUNTER

28 способов улучшить свои цифровые фотографии--
  • Год выпуска: 2014
  • Страна: Россия
  • Тематика: Фотография, работа с фото
  • Тип материала: Видеокурс
  • Продолжительность: ~05:00:00
  • Язык: Русский
  • Автор: Олег Накрошаев

    Секреты редактирования цифровых снимков в фотошопе раскрыты. Получите практический видеокурс для тех, кто хочет научиться грамотно обрабатывать снимки в программе Photoshop. В видеоуроках даны методики устранения практически всех основных недостатков цифровых снимков.--
  • Качество: PCRec
  • Формат: MP4, AVI, DOC
  • Видео кодек: AVC
  • Аудио кодек: AAC
  • Видео: 410-6257 kb/s, 1280x720, 1680х920, 800х600, 15.000 fps - 30.000 fps
  • Аудио: AAC, 44100Hz, stereo, 192 kbps
--

Содержание

Содержание курса:
• Быстрая ретушь и тонирование фотографии
• Где найти качественные фотошаблоны-SD
• Замена неба
• Изменение цвета волос в фотошопе
• Изменение цвета глаз в фотошопе
• Как вырезать картинку и вставить фон
• Как вырезать объект 4 простых способа
• Как напечатать фотошаблон-SD
• Как осветлить темное фото
• Как осветлить фотографию
• Как отбелить зубы в фотошопе
• Как сделать водяной знак в фотошопе
• Как сделать гладкую кожу в фотошопе
• Как сделать рамку на фото и вставить в неё фотографию
• Кисть-конфетти
• Коррекция фото в фотошопе
• Коррекция цвета в фотошопе
• Пейзажная фотография
• Приёмы привлечения внимания к объекту на фотографии
• Простая ретушь кожи в фотошопе
• Работа с кистями в фотошопе
• Работа с фотографией, сделанной в контровом свете
• Распечатка фотографий
• Резкость фотографии
• Ретушь портретов с помощью Photoshop
• Создание рамок для фото
• Увеличение резкости с помощью фильтра Цветовой контраст
• Цветокоррекция в фотошопе

MI

Код: copyText_writeLink('this.parentNode.parentNode.nextSibling.nextSibling');
Формат : MPEG-4
Профиль формата : Base Media / Version 2
Идентификатор кодека : mp42
Размер файла : 74,8 Мбайт
Продолжительность : 17 м.
Режим общего битрейта : Переменный
Общий поток : 605 Кбит/сек
Дата кодирования : UTC 2014-05-26 12:05:04
Дата пометки : UTC 2014-05-26 12:05:04
gsst : 0
gstd : 1036840
gssd : B4D25FAC6HH1401273682986570
gshh : r3---sn-gvnuxaxjvh-c35e.googlevideo.com
Видео
Идентификатор : 1
Формат : AVC
Формат/Информация : Advanced Video Codec
Профиль формата : High@L3.1
Параметр CABAC формата : Да
Параметр ReFrames формата : 1 кадр
Параметр GOP формата : M=1, N=60
Идентификатор кодека : avc1
Идентификатор кодека/Информация : Advanced Video Coding
Продолжительность : 17 м.
Битрейт : 411 Кбит/сек
Максимальный битрейт : 2369 Кбит/сек
Ширина : 1206 пикселей
Высота : 720 пикселей
Соотношение сторон : 1,675
Режим частоты кадров : Постоянный
Частота кадров : 30,000 кадров/сек
Цветовое пространство : YUV
Субдискретизация насыщенности : 4:2:0
Битовая глубина : 8 бит
Тип развёртки : Прогрессивная
Бит/(Пиксели*Кадры) : 0.016
Размер потока : 50,8 Мбайт (68%)
Дата пометки : UTC 2014-05-26 12:05:14
Аудио
Идентификатор : 2
Формат : AAC
Формат/Информация : Advanced Audio Codec
Профиль формата : LC
Идентификатор кодека : 40
Продолжительность : 17 м.
Вид битрейта : Переменный
Битрейт : 192 Кбит/сек
Максимальный битрейт : 202 Кбит/сек
Каналы : 2 канала
Расположение каналов : Front: L R
Частота : 44,1 КГц
Метод сжатия : С потерями
Размер потока : 23,7 Мбайт (32%)
Заголовок : IsoMedia File Produced by Google, 5-11-2011
Дата кодирования : UTC 2014-05-26 12:05:09
Дата пометки : UTC 2014-05-26 12:05:14-Код: copyText_writeLink('this.parentNode.parentNode.nextSibling.nextSibling');
Формат                                   : MPEG-4
Идентификатор кодека                     : M4V
Размер файла                             : 106 Мбайт
Продолжительность                        : 23 м.
Режим общего битрейта                    : Переменный
Общий поток                              : 641 Кбит/сек
Программа кодирования                    : Lavf52.93.0
Видео
Идентификатор                            : 1
Формат                                   : AVC
Формат/Информация                        : Advanced Video Codec
Профиль формата                          : Baseline@L3.1
Параметр CABAC формата                   : Нет
Параметр ReFrames формата                : 1 кадр
Идентификатор кодека                     : avc1
Идентификатор кодека/Информация          : Advanced Video Coding
Продолжительность                        : 23 м.
Битрейт                                  : 614 Кбит/сек
Номинальный битрейт                      : 1024 Кбит/сек
Ширина                                   : 800 пикселей
Высота                                   : 600 пикселей
Соотношение сторон                       : 4:3
Режим частоты кадров                     : Постоянный
Частота кадров                           : 15,000 кадров/сек
Цветовое пространство                    : YUV
Субдискретизация насыщенности            : 4:2:0
Битовая глубина                          : 8 бит
Тип развёртки                            : Прогрессивная
Бит/(Пиксели*Кадры)                      : 0.085
Размер потока                            : 102 Мбайт (96%)
Библиотека кодирования                   : x264 core 112
Настройки программы                      : cabac=0 / ref=1 / deblock=1:0:0 / analyse=0x1:0x111 / me=hex / subme=7 / psy=1 / psy_rd=1.00:0.00 / mixed_ref=0 / me_range=16 / chroma_me=1 / trellis=1 / 8x8dct=0 / cqm=0 / deadzone=21,11 / fast_pskip=1 / chroma_qp_offset=-2 / threads=1 / sliced_threads=0 / nr=0 / decimate=1 / interlaced=0 / constrained_intra=0 / bframes=0 / weightp=0 / keyint=250 / keyint_min=25 / scenecut=40 / intra_refresh=0 / rc_lookahead=40 / rc=abr / mbtree=1 / bitrate=1024 / ratetol=1.0 / qcomp=0.60 / qpmin=10 / qpmax=51 / qpstep=4 / ip_ratio=1.41 / aq=1:1.00
Язык                                     : English
Аудио
Идентификатор                            : 2
Формат                                   : AAC
Формат/Информация                        : Advanced Audio Codec
Профиль формата                          : LC
Идентификатор кодека                     : 40
Продолжительность                        : 23 м.
Вид битрейта                             : Переменный
Битрейт                                  : 25,4 Кбит/сек
Каналы                                   : 2 канала
Расположение каналов                     : Front: L R
Частота                                  : 8000 Гц
Метод сжатия                             : С потерями
Размер потока                            : 4,22 Мбайт (4%)
Язык                                     : English

Скриншоты



Показать сообщения:    

Текущее время: 17-Окт 17:56

Часовой пояс: UTC - 1


Вы не можете начинать темы
Вы не можете отвечать на сообщения
Вы не можете редактировать свои сообщения
Вы не можете удалять свои сообщения
Вы не можете голосовать в опросах
Вы не можете прикреплять файлы к сообщениям
Вы не можете скачивать файлы

!ВНИМАНИЕ!
Сайт не предоставляет электронные версии произведений, а занимается лишь коллекционированием и каталогизацией ссылок, присылаемых и публикуемых на форуме нашими читателями. Если вы являетесь правообладателем какого-либо представленного материала и не желаете, чтобы ссылка на него находилась в нашем каталоге, свяжитесь с нами, и мы незамедлительно удалим ее. Файлы для обмена на трекере предоставлены пользователями сайта, и администрация не несет ответственности за их содержание. Просьба не заливать файлы, защищенные авторскими правами, а также файлы нелегального содержания!