Важное объявление!
У Нас Все раздачи мультитрекерные, при нуле пиров в релизах, можете смело вставать на закачку!
 
Автор Сообщение

HUNTER

Стаж:
4 года 4 месяца
Сообщений:
56765

Репутация: 101

[+] [-]
Вне форума [Профиль] [ЛС]

22 пули: Бессмертный / L'immortel
Страна: Франция
Студия: Europa Corp.
Жанр: Боевик, драма, криминал
Год выпуска: 2010
Продолжительность: 01:52:18
Перевод: Профессиональный (дублированный)
Перевод 2: Украинский многоголосый
Cубтитры: нет
Оригинальная аудиодорожка: нет
Режиссер: Ришар Берри / Richard Berry
В ролях: Жан Рено, Габриэлла Райт, Кад Мерад, Ришар Берри, Марина Фоис, Жан-Пьер Дарруссен, Клод Жансак, Доминик Томас, Фани Коларова, Венантино Венантини
Описание: Шарль Матей — один из крестных отцов Марселя. Он решает отойти от дел и жить на покое, ведь ему немало лет, а за спиной слишком бурная жизнь. Но компаньоны против такого поворота событий. На него совершают жестокое покушение, не оставляя ему ни одного шанса. Расстрелянного коллегами в упор, Шарля доставляют в больницу и извлекают из его тела 22 пули… Но каким-то чудом он остается жив. Теперь он жаждет отомстить своим некогда друзьям. И его месть будет не менее кровава и безжалостна.
Меню: анимированное / созвученное.
Сэмпл: http://multi-up.com/985424
Тип релиза: DVD5
Контейнер: DVD-Video
Видео: PAL 16:9 (720x576) VBR
Аудио: Русский (AC3, 6 ch) 384 Kbps
Аудио 2: Украинский (AC3, 6 ch) 384 Kbps
DVDInfo
Title: WORK
Size: 4.35 Gb ( 4 565 794 KBytes ) - DVD-5
Enabled regions: 1, 2, 3, 4, 5, 6, 7, 8
VTS_01 :
Play Length: 00:00:08
Video: PAL 4:3 (720x576) VBR
VTS_02 :
Play Length: 00:00:07
Video: PAL 4:3 (720x576) VBR
Audio:
English (Dolby AC3, 2 ch)
VTS_03 :
Play Length: 01:52:18
Video: PAL 16:9 (720x576) VBR, Auto Pan&Scan
Audio:
Russian (Dolby AC3, 6 ch)
Ukrainian (Dolby AC3, 6 ch)
Menu Video:
PAL 16:9 (720x576) VBR
Auto Pan&Scan
Menu Audio:
Not specified (Dolby AC3, 2 ch)
Menu Subtitles:
Not specified
Menu English Language Unit :
Root Menu
Chapter (PTT) Menu
Audio Menu
MediaInfo
General
Complete name : E:\_ЗАКАЗЫ\22 ПУЛИ\VIDEO_TS\VTS_03_1.VOB
Format : MPEG-PS
File size : 1 024 MiB
Duration : 26mn 5s
Overall bit rate mode : Variable
Overall bit rate : 5 488 Kbps
Video
ID : 224 (0xE0)
Format : MPEG Video
Format version : Version 2
Format profile : Main@Main
Format settings, BVOP : Yes
Format settings, Matrix : Custom
Format settings, GOP : M=3, N=12
Duration : 26mn 5s
Bit rate mode : Variable
Bit rate : 4 611 Kbps
Width : 720 pixels
Height : 576 pixels
Display aspect ratio : 16:9
Frame rate : 25.000 fps
Standard : PAL
Color space : YUV
Chroma subsampling : 4:2:0
Bit depth : 8 bits
Scan type : Progressive
Compression mode : Lossy
Bits/(Pixel*Frame) : 0.445
Time code of first frame : 00:00:00:00
Time code source : Group of pictures header
Stream size : 860 MiB (84%)
Color primaries : BT.601 PAL
Transfer characteristics : BT.470 System B, BT.470 System G
Matrix coefficients : BT.601
Audio #1
ID : 189 (0xBD)-128 (0x80)
Format : AC-3
Format/Info : Audio Coding 3
Mode extension : CM (complete main)
Format settings, Endianness : Big
Muxing mode : DVD-Video
Duration : 26mn 4s
Bit rate mode : Constant
Bit rate : 384 Kbps
Channel(s) : 6 channels
Channel positions : Front: L C R, Side: L R, LFE
Sampling rate : 48.0 KHz
Bit depth : 16 bits
Compression mode : Lossy
Stream size : 71.6 MiB (7%)
Audio #2
ID : 189 (0xBD)-129 (0x81)
Format : AC-3
Format/Info : Audio Coding 3
Mode extension : CM (complete main)
Format settings, Endianness : Big
Muxing mode : DVD-Video
Duration : 26mn 4s
Bit rate mode : Constant
Bit rate : 384 Kbps
Channel(s) : 6 channels
Channel positions : Front: L C R, Side: L R, LFE
Sampling rate : 48.0 KHz
Bit depth : 16 bits
Compression mode : Lossy
Stream size : 71.6 MiB (7%)
Menu
Скриншоты менюСкриншоты

_________________
Показать сообщения:    

Текущее время: Сегодня 04:32

Часовой пояс: GMT



Вы не можете начинать темы
Вы не можете отвечать на сообщения
Вы не можете редактировать свои сообщения
Вы не можете удалять свои сообщения
Вы не можете голосовать в опросах
Вы не можете прикреплять файлы к сообщениям
Вы не можете скачивать файлы