Важное объявление!
У Нас Все раздачи мультитрекерные, при нуле пиров в релизах, можете смело вставать на закачку!
 
Автор Сообщение

димитри37

Стаж:
3 года 10 месяцев
Сообщений:
1237

Репутация: 127

[+] [-]
Вне форума [Профиль] [ЛС]

21 и больше / 21 & Over
Страна: США
Студия: Mandeville Films, Relativity Media, SkyLand Entertainment, Virgin Produced
Жанр: комедия
Год выпуска: 2013
Продолжительность: 01:33:06
Перевод: Профессиональный (дублированный)
Cубтитры: нет
Режиссер: Джон Лукас / Jon Lucas, Скотт Мур / Scott Moore
В ролях: Скайлар Эстин, Сара Райт, Майлз Теллер, Джонатан Кельтц, Джастин Чон, Сара Райт, Джонатан Кельтц, Франсуа Чау, Расселл Ходжкинсон, Дэниэл Буко, Расселл Меркадо, Джози Лор
Описание: Агент ЦРУ бросает работу, чтобы наладить отношения с дочерью, но вынужден защитить ее от своих же коллег, которые намерены убить ее по приказу начальства.

Релиз: fanatus
Качество видео: BDRip (AVC)
Исходник: Blu-Ray disc [21_OVER_HDCLUB]
Контейнер: MKV
Видео: MPEG-4 AVC, 1783 kbps , 1024x576 (16:9), 23.976 fps, 0.126 bit/pixel
Аудио: русский (AC3, 6 ch, 48 kHz, 448 kbps)
Главы: есть

MediaInfo

General
Unique ID : 207179400885961116398823876592181358674 (0x9BDD4D1B9DE299CF9D5466E5C6B2B052)
Complete name : D:\21.i.bolshe.2013.x264.BDRip.(AVC).fanatus.mkv
Format : Matroska
Format version : Version 2
File size : 1.45 GiB
Duration : 1h 33mn
Overall bit rate : 2 233 Kbps
Movie name : 21 & Over (2013) - fanatus
Encoded date : UTC 2013-05-17 21:37:04
Writing application : mkvmerge v3.4.0 ('Rapunzel') сборка от May 15 2010 09:38:20
Writing library : libebml v0.8.0 + libmatroska v0.9.0
Video
ID : 1
Format : AVC
Format/Info : Advanced Video Codec
Format profile : High@L4.1
Format settings, CABAC : Yes
Format settings, ReFrames : 10 frames
Codec ID : V_MPEG4/ISO/AVC
Duration : 1h 33mn
Bit rate : 1 783 Kbps
Width : 1 024 pixels
Height : 576 pixels
Display aspect ratio : 16:9
Frame rate : 23.976 fps
Color space : YUV
Chroma subsampling : 4:2:0
Bit depth : 8 bits
Scan type : Progressive
Bits/(Pixel*Frame) : 0.126
Stream size : 1.13 GiB (78%)
Title : 21 & Over (2013)
Writing library : x264 core 132 r2323+704+51 d571b1c tMod [8-bit@all X86]
Encoding settings : cabac=1 / ref=10 / deblock=1:-3:-3 / analyse=0x3:0x113 / me=umh / subme=11 / psy=1 / fade_compensate=0.00 / psy_rd=1.00:0.05 / mixed_ref=1 / me_range=32 / chroma_me=1 / trellis=2 / 8x8dct=1 / cqm=0 / deadzone=21,11 / fast_pskip=0 / chroma_qp_offset=-3 / threads=16 / lookahead_threads=4 / sliced_threads=0 / nr=0 / decimate=0 / interlaced=0 / bluray_compat=0 / constrained_intra=0 / fgo=0 / bframes=10 / b_pyramid=2 / b_adapt=2 / b_bias=0 / direct=3 / weightb=1 / open_gop=0 / weightp=2 / keyint=240 / keyint_min=23 / scenecut=40 / intra_refresh=0 / rc_lookahead=240 / rc=2pass / mbtree=0 / bitrate=1783 / ratetol=1.0 / qcomp=0.65 / qpmin=0 / qpmax=69 / qpstep=4 / cplxblur=20.0 / qblur=0.5 / vbv_maxrate=50000 / vbv_bufsize=62500 / nal_hrd=none / ip_ratio=1.40 / pb_ratio=1.30 / aq=4:0.90 / aq-sensitivity=10.00 / aq-factor=1.00:1.00:1.00 / aq2=0 / aq3=0 / zones=125864,133920,q=32
Language : English
Default : Yes
Forced : No
Color primaries : BT.709-5, BT.1361, IEC 61966-2-4, SMPTE RP177
Transfer characteristics : BT.709-5, BT.1361
Matrix coefficients : BT.709-5, BT.1361, IEC 61966-2-4 709, SMPTE RP177
Audio
ID : 2
Format : AC-3
Format/Info : Audio Coding 3
Mode extension : CM (complete main)
Format settings, Endianness : Big
Codec ID : A_AC3
Duration : 1h 33mn
Bit rate mode : Constant
Bit rate : 448 Kbps
Channel(s) : 6 channels
Channel positions : Front: L C R, Side: L R, LFE
Sampling rate : 48.0 KHz
Bit depth : 16 bits
Compression mode : Lossy
Stream size : 298 MiB (20%)
Title : Dub
Language : Russian
Default : Yes
Forced : No
Menu
00:00:00.000 : en:Chapter 01
00:05:54.228 : en:Chapter 02
00:14:47.469 : en:Chapter 03
00:21:47.431 : en:Chapter 04
00:29:08.997 : en:Chapter 05
00:37:08.976 : en:Chapter 06
00:44:17.154 : en:Chapter 07
00:51:19.242 : en:Chapter 08
01:00:12.734 : en:Chapter 09
01:10:07.077 : en:Chapter 10
01:16:20.993 : en:Chapter 11
01:26:53.917 : en:Chapter 12
01:33:05.496 : en:Chapter 13

x264

x264 [info]: 1024x576p 1:1 @ 24000/1001 fps (cfr)
x264 [info]: frame I:1381 Avg QP:16.22 size: 55305
x264 [info]: frame P:32512 Avg QP:20.52 size: 18760
x264 [info]: frame B:100027 Avg QP:22.19 size: 5584
x264 [info]: consecutive B-frames: 4.0% 4.5% 11.2% 19.4% 18.4% 34.3% 5.1% 1.1% 0.9% 0.5% 0.5%
x264 [info]: mb I I16..4: 9.3% 77.3% 13.4%
x264 [info]: mb P I16..4: 3.1% 11.7% 1.2% P16..4: 34.4% 34.0% 8.0% 0.0% 0.0% skip: 7.6%
x264 [info]: mb B I16..4: 0.4% 1.0% 0.1% B16..8: 35.6% 17.0% 2.0% direct: 3.0% skip:40.9% L0:43.0% L1:47.5% BI: 9.5%
x264 [info]: 8x8 transform intra:72.8% inter:73.5%
x264 [info]: direct mvs spatial:96.3% temporal:3.7%
x264 [info]: coded y,uvDC,uvAC intra: 66.7% 75.3% 52.1% inter: 15.0% 18.9% 8.9%
x264 [info]: i16 v,h,dc,p: 45% 13% 7% 35%
x264 [info]: i8 v,h,dc,ddl,ddr,vr,hd,vl,hu: 9% 7% 7% 9% 14% 14% 13% 13% 13%
x264 [info]: i4 v,h,dc,ddl,ddr,vr,hd,vl,hu: 12% 9% 9% 8% 15% 14% 13% 10% 11%
x264 [info]: i8c dc,h,v,p: 39% 24% 18% 18%
x264 [info]: Weighted P-Frames: Y:1.6% UV:0.9%
x264 [info]: ref P L0: 52.0% 8.7% 17.4% 6.0% 4.7% 3.3% 2.9% 1.6% 1.5% 1.4% 0.3% 0.0%
x264 [info]: ref B L0: 77.9% 11.0% 4.7% 2.2% 1.5% 1.2% 0.9% 0.4% 0.2%
x264 [info]: ref B L1: 93.8% 6.2%
x264 [info]: kb/s:1782.98
x264 [info]: encoded 133920 frames, 11.39 fps, 1782.98 kb/s, 1187.2 MB

Скриншот c названием фильма

-
Показать сообщения:    

Текущее время: Сегодня 05:04

Часовой пояс: GMT



Вы не можете начинать темы
Вы не можете отвечать на сообщения
Вы не можете редактировать свои сообщения
Вы не можете удалять свои сообщения
Вы не можете голосовать в опросах
Вы не можете прикреплять файлы к сообщениям
Вы не можете скачивать файлы
Наши партнеры: интернет магазин Ивановского трикотажа textilla.ru