Важное объявление!
У Нас Все раздачи мультитрекерные, при нуле пиров в релизах, можете смело вставать на закачку!
 
Автор Сообщение

HUNTER

Стаж:
4 года 4 месяца
Сообщений:
56839

Репутация: 101

[+] [-]
Вне форума [Профиль] [ЛС]

20 лет телескопу Хаббл. Подведение итогов исследований / Honouring. 20 years of Hubble
Год выпуска: 2010
Страна: Европа, США
Продолжительность: 00:11:15
Перевод: Slavnus Spacedust+vito100
Семпл: http://multi-up.com/267269
Русские субтитры: нет
Режиссер: Colleen Sharkey
Описание: 24 апреля 2010 самому известному телескопу планеты Земля исполнилось - 20 лет.
Этот специальный выпуск программы посвящён главным достижениям в исследовании Хаббла - Вселенной.
Качество: Webrip
Формат: MKV
Видео кодек: H.264
Аудио кодек: AC3
Видео: 1280x720 4500kbps 25fps
Аудио: 48khz stereo 192kbps

Скриншоты

MediaInfo

GeneralUnique ID : 218146071944157777374834074353260005733 (0xA41D67BC8C65466A88C47BDAC30B8965)Complete name : M:\Spacedust\01.Space\02.USA\2010 - 20 лет телескопу Хаббл. Подведение итогов исследований - Honouring. 20 years of Hubble (Colleen Sharkey)\Hubblecast 36.mkvFormat : MatroskaFormat version : Version 1File size : 372 MiBDuration : 11mn 15sOverall bit rate : 4 615 KbpsEncoded date : UTC 2010-05-04 15:55:58Writing application : mkvmerge v2.2.0 ('Turn It On Again') built on Mar 4 2008 12:58:26Writing library : libebml v0.7.7 + libmatroska v0.8.1
VideoID : 1Format : AVCFormat/Info : Advanced Video CodecFormat profile : Main@L3.1Format settings, CABAC : NoFormat settings, ReFrames : 2 framesCodec ID : V_MPEG4/ISO/AVCDuration : 11mn 15sBit rate : 4 332 KbpsWidth : 1 280 pixelsHeight : 720 pixelsDisplay aspect ratio : 16:9Frame rate mode : ConstantFrame rate : 25.000 fpsColor space : YUVChroma subsampling : 4:2:0Bit depth : 8 bitsScan type : ProgressiveBits/(Pixel*Frame) : 0.188Stream size : 349 MiB (94%)Default : YesForced : NoColor primaries : BT.709Transfer characteristics : BT.709Matrix coefficients : BT.709
AudioID : 2Format : AC-3Format/Info : Audio Coding 3Mode extension : CM (complete main)Format settings, Endianness : BigCodec ID : A_AC3Duration : 11mn 15sBit rate mode : ConstantBit rate : 192 KbpsChannel(s) : 2 channelsChannel positions : Front: L RSampling rate : 48.0 KHzBit depth : 16 bitsCompression mode : LossyStream size : 15.5 MiB (4%)Default : YesForced : No

_________________
Показать сообщения:    

Текущее время: Сегодня 07:00

Часовой пояс: GMT



Вы не можете начинать темы
Вы не можете отвечать на сообщения
Вы не можете редактировать свои сообщения
Вы не можете удалять свои сообщения
Вы не можете голосовать в опросах
Вы не можете прикреплять файлы к сообщениям
Вы не можете скачивать файлы