Важное объявление!
У Нас Все раздачи мультитрекерные, при нуле пиров в релизах, можете смело вставать на закачку!
Статистика раздачи
Размер:     |    Зарегистрирован:     |    Скачан:     |   
Нет
 
     
 
 
Автор Сообщение

HUNTER

Стаж:
5 лет
Сообщений:
67958

Репутация: 101

[+] [-]
Вне форума [Профиль] [ЛС]

2016 Masters of Formula 3. Motors TV
Вид спорта: Автоспорт
Дата/Год выпуска: 20.08.2016-21.08.2016
Язык комментариев: Английский
Описание: F3 Masters — это соревнование для автомобилей класса Формула-3.
Соревнование было задумано перед сезоном 1991 года как неофициальное первенство Европы среди пилотов различных национальных первенств Формулы-3, придя на смену еврокубку для машин этой категории. Masters был удачно расположен в календаре и в нём, в своё время, участвовали многие будущие звёзды автоспорта: такие пилоты как Рубенс Баррикелло, Дэвид Култхард, Кристоф Бушю, Педро Лами, Жиль де Ферран и Элио Кастроневес в своё время выходили на старт этого, со временем, сверхпрестижного соревнования.
Автор рипа/записи: Ales
Качество: HDTV
Формат видео: MKV
Видео: H264, 1280x720p, 25 кадр/c, 4 519 Kbps
Аудио: AAC 2.0, 48.0 KHz, 192 kb/s

Гонка 1

Продолжительность
0:30:15

Скриншоты

MediaInfo

GeneralUnique ID : 236146279884908230687523386143787006292 (0xB1A81E81D5551BA0876562B8E1E53954)Complete name : Z:\01.SYS\FASTTORRENT\Автоспорт\Other\MASTERS_F3_2016_MOTORS_TV_720P\MASTERS_F3_2016_RACE1_MOTORS_TV_720P.mkvFormat : MatroskaFormat version : Version 4 / Version 2File size : 1 006 MiBDuration : 30mn 15sOverall bit rate : 4 650 KbpsEncoded date : UTC 2016-08-21 14:20:38Writing application : mkvmerge v8.9.0 ('Father Daughter') 64bitWriting library : libebml v1.3.3 + libmatroska v1.4.4
VideoID : 2Format : AVCFormat/Info : Advanced Video CodecFormat profile : High@L3.1Format settings, CABAC : YesFormat settings, ReFrames : 4 framesCodec ID : V_MPEG4/ISO/AVCDuration : 30mn 15sBit rate : 4 519 KbpsWidth : 1 280 pixelsHeight : 720 pixelsDisplay aspect ratio : 16:9Frame rate mode : ConstantFrame rate : 25.000 fpsStandard : ComponentColor space : YUVChroma subsampling : 4:2:0Bit depth : 8 bitsScan type : ProgressiveBits/(Pixel*Frame) : 0.196Stream size : 978 MiB (97%)Default : YesForced : NoColor range : LimitedColor primaries : BT.709Transfer characteristics : BT.709Matrix coefficients : BT.709
AudioID : 1Format : AACFormat/Info : Advanced Audio CodecFormat profile : LCCodec ID : A_AACDuration : 30mn 14sBit rate : 128 KbpsChannel(s) : 2 channelsChannel positions : Front: L RSampling rate : 48.0 KHzFrame rate : 46.875 fps (1024 spf)Compression mode : LossyDelay relative to video : -16msStream size : 27.8 MiB (3%)Language : EnglishDefault : YesForced : No

Гонка 2

Продолжительность
1:01:52

Скриншоты

MediaInfo

GeneralUnique ID : 179175677039281557208516628278851291082 (0x86CBFAEC86545FE5B19812CA663A47CA)Complete name : Z:\01.SYS\FASTTORRENT\Автоспорт\Other\MASTERS_F3_2016_MOTORS_TV_720P\MASTERS_F3_2016_RACE2_MOTORS_TV_720P.mkvFormat : MatroskaFormat version : Version 4 / Version 2File size : 2.01 GiBDuration : 1h 1mnOverall bit rate : 4 654 KbpsEncoded date : UTC 2016-08-21 15:15:07Writing application : mkvmerge v8.9.0 ('Father Daughter') 64bitWriting library : libebml v1.3.3 + libmatroska v1.4.4
VideoID : 2Format : AVCFormat/Info : Advanced Video CodecFormat profile : High@L3.1Format settings, CABAC : YesFormat settings, ReFrames : 4 framesCodec ID : V_MPEG4/ISO/AVCDuration : 1h 1mnBit rate : 4 524 KbpsWidth : 1 280 pixelsHeight : 720 pixelsDisplay aspect ratio : 16:9Frame rate mode : VariableFrame rate : 24.930 fpsOriginal frame rate : 25.000 fpsStandard : ComponentColor space : YUVChroma subsampling : 4:2:0Bit depth : 8 bitsScan type : ProgressiveBits/(Pixel*Frame) : 0.197Stream size : 1.95 GiB (97%)Default : YesForced : NoColor range : LimitedColor primaries : BT.709Transfer characteristics : BT.709Matrix coefficients : BT.709
AudioID : 1Format : AACFormat/Info : Advanced Audio CodecFormat profile : LCCodec ID : A_AACDuration : 1h 1mnBit rate : 128 KbpsChannel(s) : 2 channelsChannel positions : Front: L RSampling rate : 48.0 KHzFrame rate : 46.875 fps (1024 spf)Compression mode : LossyDelay relative to video : -6msStream size : 56.6 MiB (3%)Language : EnglishDefault : YesForced : No

_________________
Показать сообщения:    

Текущее время: Сегодня 02:35

Часовой пояс: GMT



Вы не можете начинать темы
Вы не можете отвечать на сообщения
Вы не можете редактировать свои сообщения
Вы не можете удалять свои сообщения
Вы не можете голосовать в опросах
Вы не можете прикреплять файлы к сообщениям
Вы не можете скачивать файлы