Важное объявление!
У Нас Все раздачи мультитрекерные, при нуле пиров в релизах, можете смело вставать на закачку!
Статистика раздачи
Размер:     |    Зарегистрирован:     |    Скачан:     |   
Нет
 
     
 
 
Автор Сообщение

HUNTER

Стаж:
5 лет 1 месяц
Сообщений:
68449

Репутация: 101

[+] [-]
Вне форума [Профиль] [ЛС]

Патологоанатом / Коронер / The Coroner
Страна: США
Студия: New Horizons Home Video
Жанр: ужасы
Год выпуска: 1999
Продолжительность: 1.14.05
Перевод: Профессиональный (двухголосый закадровый)
Cубтитры: шведские
Оригинальная аудиодорожка: английский
Режиссер: Брайан Кэткин / Brian Katkin, Хуан А. Мас / Juan A. Mas, Алан Смити / Alan Smithee
В ролях: Дин Луис, Джейн Лонгенекер, Кристина Бурк
Описание: Эмма-процветающий адвокат Сан-Франциско, сделавшая карьеру, помогая проституткам наладить нормальную жизнь. В городе появляется серийный убийца, который начинает убивать этих женщин. Он похищает Эмму и запирает в своем подвале, оборудованном в стиле камеры пыток. В конце концов, Эмме удается выбраться оттуда и рассказать эту историю полиции. Но когда полицейские приезжают по указанному ей адресу, выясняется, что в доме проживает влиятельный патологоанатом городского морга доктор Леон. Он выбирает женщин, пытавшихся покончить жизнь самоубийством, и доводит их начинания до конца. Ему удается скрывать свои преступления, так как именно он делает вскрытия своим жертвам. Полиция не верит Эмме. Тогда женщине не остается ничего другого, как самой похитить маньяка и сделать пленником в своем собственном подвале…Низкобюджетный телевизионный фильм. Всего в картине семь трупов. Брайан Каткин работал над фильмами «После школы» (1988), «Плохие сны» (1988), «Тонкая синяя линяя» (1988), «Майами блюз» (1990), «Ангел разрушения» (1994), «Похороны крыс» (1995), «Преступные сердца» (1995), «Черная роза Гарлема» (1996), «Инопланетные мстители-2» (1998), «Если я умру раньше, чем проснусь» (1998), «Динокрок» (2004), «Доктор Гнев» (2005).
Доп. информация: Русская звуковая дорожка взята с этой раздачи http://rutracker.org/forum/viewtopic.php?t=3305488 автору большое спасибо.
За синхронизацию всех русских дорожек огромное спасибо Нордер
При пересборе двд были использованы программы:
PgcDemux - разделение компонентов диска на файлы
Muxman - мультиплексирование и авторинг DVD
VobBlanker - реавторинг DVD
Сэмпл: http://sendfile.su/1121213
Видео: PAL 4:3 (720x576) VBR
Аудио: Russian (Dolby AC3, 192 Кбит/сек, 2 ch)
Аудио 2: English (Dolby AC3, 384 Кбит/сек, 2 ch)
Формат субтитров: prerendered (DVD/IDX+SUB)

DVDInfo

Size: 7.90 Gb ( 8 288 746 KBytes ) - DVD-9
Enabled regions: 1, 2, 3, 4, 5, 6, 7, 8
VTS_01 :
Play Length: 01:14:05
Video: PAL 4:3 (720x576) VBR
Audio:
Russian (Dolby AC3, 2 ch)
English (Dolby AC3, 2 ch)
Subtitles:
Svenska
Not specified
Dansk
Norsk
VTS_02 :
Play Length: 01:36:31
Video: PAL 4:3 (720x576) VBR
Audio:
Russian (Dolby AC3, 2 ch)
Russian (Dolby AC3, 2 ch)
Russian (Dolby AC3, 2 ch)
English (Dolby AC3, 2 ch)
Subtitles:
Svenska
Sundanese
Dansk
Norsk
Norsk
Sundanese
Dansk
Svenska
Menu Video:
PAL 16:9 (720x576) VBR
Auto Pan&Scan
Menu Audio:
Not specified (Dolby AC3, 2 ch)
Menu Subtitles:
Not specified
Menu English Language Unit :
Root Menu

MediaInfo

Общее
Полное имя : F:\The Coroner_1999 Shadow Builder_1998\VIDEO_TS\VTS_01_1.VOB
Формат : MPEG-PS
Размер файла : 1024 Мбайт
Продолжительность : 19 м.
Режим общего битрейта : Переменный
Общий поток : 7353 Кбит/сек
Видео
Идентификатор : 224 (0xE0)
Формат : MPEG Video
Версия формата : Version 2
Профиль формата : Main@Main
Параметр BVOP формата : Да
Параметр матрицы формата : По умолчанию
Продолжительность : 19 м.
Вид битрейта : Переменный
Битрейт : 6631 Кбит/сек
Ширина : 720 пикселей
Высота : 576 пикселей
Соотношение сторон : 4:3
Частота кадров : 25,000 кадров/сек
Стандарт вещания : PAL
Цветовое пространство : YUV
Субдискретизация насыщенности : 4:2:0
Битовая глубина : 8 бит
Метод сжатия : С потерями
Бит/(Пиксели*Кадры) : 0.640
Размер потока : 923 Мбайт (90%)
Основные цвета : BT.601 PAL
Характеристики трансфера : BT.470 System B, BT.470 System G
Коэффициенты матрицы : BT.601
Аудио #1
Идентификатор : 189 (0xBD)-128 (0x80)
Формат : AC-3
Формат/Информация : Audio Coding 3
Расширение режима : CM (complete main)
Параметр Endianness формата : Big
Режим смешивания : DVD-Video
Продолжительность : 19 м.
Вид битрейта : Постоянный
Битрейт : 192 Кбит/сек
Каналы : 2 канала
Расположение каналов : Front: L R
Частота : 48,0 КГц
Битовая глубина : 16 бит
Метод сжатия : С потерями
Задержка видео : -6 мс.
Размер потока : 26,7 Мбайт (3%)
Аудио #2
Идентификатор : 189 (0xBD)-129 (0x81)
Формат : AC-3
Формат/Информация : Audio Coding 3
Расширение режима : CM (complete main)
Параметр Endianness формата : Big
Режим смешивания : DVD-Video
Продолжительность : 19 м.
Вид битрейта : Постоянный
Битрейт : 384 Кбит/сек
Каналы : 2 канала
Расположение каналов : Front: L R
Частота : 48,0 КГц
Битовая глубина : 16 бит
Метод сжатия : С потерями
Задержка видео : -6 мс.
Размер потока : 53,5 Мбайт (5%)
Меню
Зодчий теней / Повелитель теней / Shadow Builder
Страна: США
Студия: Apple Creek Productions/Imperial Entertainment
Жанр: ужасы
Год выпуска: 1998
Продолжительность: 1.36.31
Перевод: Авторский одноголосый (Горчаков)
Перевод 2: Профессиональный (двухголосый закадровый)
Перевод 3: Профессиональный (многолосый закадровый)
Cубтитры: шведские
Оригинальная аудиодорожка: английский
Режиссер: Джэми Диксон / Jamie Dixon
В ролях: Майкл Рукер, Лэсли Хоуп, Эмма Томпсон
Описание: Главный герой картины-двенадцатилетний мальчуган по имени Крис Хэтчер. Его отец Вик таинственно погибает, могила матери оказывается разграблена, а труп исчезает. Оказывается, во время крещения ребенка, когда священник святой водой коснулся мальчика, у него на руках и ногах выступила кровь. Это были стигматы, а сам Крис является святым! В родной городок Криса Grand River прибывает сам повелитель тьмы, тело которого реагирует на свет и распадается. С его приходом город наполняется насилием, убийствами, развратом, ссорами и драками. Повелителю тьмы нужны души шести людей, чтобы во время полного затмения принести в жертву Криса и войти в наш мир, где он сможет безгранично творить зло. По следу посланника ада идет здоровенный священник, отец Вэсси, вооруженный не хуже, чем Арнольд Шварценеггер в фильме «Коммандо» (1988), который пытается уничтожить дьявольское воплощение мрака. Предстоит решающая схватка…
Превосходные спецэффекты позволяют немного забыть о прямых заимствованиях из картин «Нужные вещи» (1993) и «Дракула» (1931). В эпизодической роли появляется Тони Тодд («Взвод», 1986; «Ночь живых мертвецов», 1990; «Рассвет вуду», 1990; «Леденец», 1992; «Ворон», 1994; «Повелитель зверей-3», 1996; «Скала», 1996; «Исполнитель желаний», 1997; «Проект Пандора», 1998; «Пункт последнего назначения», 2000). Бюджет фильма составил 4 миллиона долларов. Картина снималась только для видеопроката. Это режиссерский дебют Джеми Диксона, который работал над визуальными эффектами в картинах «Игрушки» (1992), «Глубокое синее море» (1999), «Сверхновая звезда» (2000), «Субмарина U-571» (2000), «Доктор Дулиттл-2» (2001), а также над клипом Майкла Джексона «Black and White» (1991). На международном кинофестивале «Fantafestival» картина получила приз за лучшие спецэффекты.
Доп. информация: Русские звуковые дорожки взяты с этих раздач http://rutracker.org/forum/tracker.php?f=2221&nm=Shadow+Builder авторам большое спасибо.
За синхронизацию всех русских дорожек огромное спасибо Нордер
При пересборе двд были использованы программы:
PgcDemux - разделение компонентов диска на файлы
Muxman - мультиплексирование и авторинг DVD
VobBlanker - реавторинг DVD

Точка перехода

Скрин завершения проекта

Бонусы: Разделение по главам отсуьствует.
Сэмпл: http://sendfile.su/1121214
Тип релиза: DVD9 (Custom)
Контейнер: DVD-Video
Видео: PAL 4:3 (720x576) VBR
Аудио: Russian (Dolby AC3, 192 Кбит/сек, 2 ch)
Аудио 2: Russian (Dolby AC3, 192 Кбит/сек, 2 ch)
Аудио 3: Russian (Dolby AC3, 192 Кбит/сек, 2 ch)
Аудио 4: English (Dolby AC3, 384 Кбит/сек, 2 ch)
Формат субтитров: prerendered (DVD/IDX+SUB)

MediaInfo

Общее
Полное имя : F:\The Coroner_1999 Shadow Builder_1998\VIDEO_TS\VTS_02_1.VOB
Формат : MPEG-PS
Размер файла : 1024 Мбайт
Продолжительность : 24 м.
Режим общего битрейта : Переменный
Общий поток : 5870 Кбит/сек
Видео
Идентификатор : 224 (0xE0)
Формат : MPEG Video
Версия формата : Version 2
Профиль формата : Main@Main
Параметр BVOP формата : Да
Параметр матрицы формата : По умолчанию
Параметр GOP формата : M=3, N=13
Продолжительность : 24 м.
Вид битрейта : Переменный
Битрейт : 4921 Кбит/сек
Максимальный битрейт : 8900 Кбит/сек
Ширина : 720 пикселей
Высота : 576 пикселей
Соотношение сторон : 4:3
Частота кадров : 25,000 кадров/сек
Стандарт вещания : PAL
Цветовое пространство : YUV
Субдискретизация насыщенности : 4:2:0
Битовая глубина : 8 бит
Тип развёртки : Чересстрочная
Порядок развёртки : Верхнее поле первое
Метод сжатия : С потерями
Бит/(Пиксели*Кадры) : 0.475
Размер потока : 858 Мбайт (84%)
Основные цвета : BT.601 PAL
Характеристики трансфера : BT.470 System B, BT.470 System G
Коэффициенты матрицы : BT.601
Аудио #1
Идентификатор : 189 (0xBD)-128 (0x80)
Формат : AC-3
Формат/Информация : Audio Coding 3
Расширение режима : CM (complete main)
Параметр Endianness формата : Big
Режим смешивания : DVD-Video
Продолжительность : 24 м.
Вид битрейта : Постоянный
Битрейт : 192 Кбит/сек
Каналы : 2 канала
Расположение каналов : Front: L R
Частота : 48,0 КГц
Битовая глубина : 16 бит
Метод сжатия : С потерями
Размер потока : 33,5 Мбайт (3%)
Аудио #2
Идентификатор : 189 (0xBD)-129 (0x81)
Формат : AC-3
Формат/Информация : Audio Coding 3
Расширение режима : CM (complete main)
Параметр Endianness формата : Big
Режим смешивания : DVD-Video
Продолжительность : 24 м.
Вид битрейта : Постоянный
Битрейт : 192 Кбит/сек
Каналы : 2 канала
Расположение каналов : Front: L R
Частота : 48,0 КГц
Битовая глубина : 16 бит
Метод сжатия : С потерями
Размер потока : 33,5 Мбайт (3%)
Аудио #3
Идентификатор : 189 (0xBD)-130 (0x82)
Формат : AC-3
Формат/Информация : Audio Coding 3
Расширение режима : CM (complete main)
Параметр Endianness формата : Big
Режим смешивания : DVD-Video
Продолжительность : 24 м.
Вид битрейта : Постоянный
Битрейт : 192 Кбит/сек
Каналы : 2 канала
Расположение каналов : Front: L R
Частота : 48,0 КГц
Битовая глубина : 16 бит
Метод сжатия : С потерями
Размер потока : 33,5 Мбайт (3%)
Аудио #4
Идентификатор : 189 (0xBD)-131 (0x83)
Формат : AC-3
Формат/Информация : Audio Coding 3
Расширение режима : CM (complete main)
Параметр Endianness формата : Big
Режим смешивания : DVD-Video
Продолжительность : 24 м.
Вид битрейта : Постоянный
Битрейт : 256 Кбит/сек
Каналы : 2 канала
Расположение каналов : Front: L R
Частота : 48,0 КГц
Битовая глубина : 16 бит
Метод сжатия : С потерями
Размер потока : 44,7 Мбайт (4%)
Меню

Постеры

Скриншоты меню

Скриншоты


_________________
Показать сообщения:    

Текущее время: Сегодня 17:31

Часовой пояс: GMT



Вы не можете начинать темы
Вы не можете отвечать на сообщения
Вы не можете редактировать свои сообщения
Вы не можете удалять свои сообщения
Вы не можете голосовать в опросах
Вы не можете прикреплять файлы к сообщениям
Вы не можете скачивать файлы