Важное объявление!
У Нас Все раздачи мультитрекерные, при нуле пиров в релизах, можете смело вставать на закачку!
 
Автор Сообщение

HUNTER

Стаж:
4 года 9 месяцев
Сообщений:
65004

Репутация: 101

[+] [-]
Вне форума [Профиль] [ЛС]

1/4 Финала Турнира "Boxcino" в Тяжелом Весе / Boxcino Heavyweight Tournament: Quarterfinals-
Дата/Год выпуска: 20.02.2015
Вид спорта: Бокс
Язык комментариев: Английский
Канал: ESPN HD
Место проведения: "Mohegan Sun Casino", Верона, Нью-Йорк , США.-Описание: Четвертьфинал турнира "Boxcino" в "Тяжелом Весе".-Автор рипа/записи: nabucghost-Качество: HDTV 720p
Формат: MKV
Видео: 1280x720 (16:9), 59,940 fps, H264, ~8000 kbps avg, ~0.144 bit/pixel
Аудио: 48 kHz, AC3, 2/0 (L,R) ch, ~256.00 kbps avg-

Список боев

1. Lenroy Thomas [18-3] vs. Jason Estrada [20-5] - 6 Rounds in the Heavyweight Division
2. Razvan Cojanu [12-1] vs. Ed Fountain [10-0] - 6 Rounds in the Heavyweight Division
3. Andrey Fedosov [25-3] vs. Nat Heaven [9-1] - 6 Rounds in the Heavyweight Division
4. Steve Vukosa [10-0] vs. Donovan Dennis [10-1] - 6 Rounds in the Heavyweight Division

Продолжительность

1. Lenroy Thomas vs. Jason Estrada (0:34:06)
2. Razvan Cojanu vs. Ed Fountain (0:34:55)
3. Andrey Fedosov vs. Nat Heaven (0:12:18)
4. Steve Vukosa vs. Donovan Dennis (0:23:41)

Скриншоты

MediaInfo

1.-.Lenroy.Thomas.vs.Jason.Estrada.60fps.HDTV.720p.x264-ENG-lrn.mkv
GeneralUnique ID : 195827207066576713831571802401439685528 (0x9352F2BD55C784118BEB49CC64C31B98)Complete name : E:\uTorrent.Temp\Temp\Boxcino Heavyweight Tournament (Quarterfinals) [60fps, HDTV 720p, ENG]\1.-.Lenroy.Thomas.vs.Jason.Estrada.60fps.HDTV.720p.x264-ENG-lrn.mkvFormat : MatroskaFormat version : Version 4 / Version 2File size : 2.00 GiBDuration : 34mn 6sOverall bit rate : 8 393 KbpsMovie name : 'Boxcino Heavyweight Tournament (Quarterfinals) [60fps, HDTV 720p, ENG]' by lrn © 2015Encoded date : UTC 2010-02-22 21:41:31Writing application : mkvmerge v5.9.0 ('On The Loose') built on Dec 9 2012 15:37:01Writing library : libebml v1.3.0 + libmatroska v1.4.0
VideoID : 1Format : AVCFormat/Info : Advanced Video CodecFormat profile : High@L4.0Format settings, CABAC : YesFormat settings, ReFrames : 3 framesCodec ID : V_MPEG4/ISO/AVCDuration : 34mn 6sBit rate : 7 970 KbpsWidth : 1 280 pixelsHeight : 720 pixelsDisplay aspect ratio : 16:9Frame rate mode : ConstantFrame rate : 60.000 fpsOriginal frame rate : 59.940 fpsStandard : ComponentColor space : YUVChroma subsampling : 4:2:0Bit depth : 8 bitsScan type : ProgressiveBits/(Pixel*Frame) : 0.144Stream size : 1.90 GiB (95%)Default : YesForced : NoColor primaries : BT.709Transfer characteristics : BT.709Matrix coefficients : BT.709Color range : Limited
AudioID : 2Format : AC-3Format/Info : Audio Coding 3Mode extension : CM (complete main)Format settings, Endianness : BigCodec ID : A_AC3Duration : 34mn 6sBit rate mode : ConstantBit rate : 256 KbpsChannel(s) : 2 channelsChannel positions : Front: L RSampling rate : 48.0 KHzBit depth : 16 bitsCompression mode : LossyDelay relative to video : 27msStream size : 62.5 MiB (3%)Language : EnglishDefault : YesForced : No

2.-.Razvan.Cojanu.vs.Ed.Fountain.60fps.HDTV.720p.x264-ENG-lrn.mkv

GeneralUnique ID : 238224054807976544945634437746192372804 (0xB33848B85700137894BAEE6972095444)Complete name : E:\uTorrent.Temp\Temp\Boxcino Heavyweight Tournament (Quarterfinals) [60fps, HDTV 720p, ENG]\2.-.Razvan.Cojanu.vs.Ed.Fountain.60fps.HDTV.720p.x264-ENG-lrn.mkvFormat : MatroskaFormat version : Version 4 / Version 2File size : 2.02 GiBDuration : 34mn 55sOverall bit rate : 8 298 KbpsMovie name : 'Boxcino Heavyweight Tournament (Quarterfinals) [60fps, HDTV 720p, ENG]' by lrn © 2015Encoded date : UTC 2010-02-22 21:41:31Writing application : mkvmerge v5.9.0 ('On The Loose') built on Dec 9 2012 15:37:01Writing library : libebml v1.3.0 + libmatroska v1.4.0
VideoID : 1Format : AVCFormat/Info : Advanced Video CodecFormat profile : High@L4.0Format settings, CABAC : YesFormat settings, ReFrames : 3 framesCodec ID : V_MPEG4/ISO/AVCDuration : 34mn 55sBit rate : 7 877 KbpsWidth : 1 280 pixelsHeight : 720 pixelsDisplay aspect ratio : 16:9Frame rate mode : ConstantFrame rate : 60.000 fpsOriginal frame rate : 59.940 fpsStandard : ComponentColor space : YUVChroma subsampling : 4:2:0Bit depth : 8 bitsScan type : ProgressiveBits/(Pixel*Frame) : 0.142Stream size : 1.92 GiB (95%)Default : YesForced : NoColor primaries : BT.709Transfer characteristics : BT.709Matrix coefficients : BT.709Color range : Limited
AudioID : 2Format : AC-3Format/Info : Audio Coding 3Mode extension : CM (complete main)Format settings, Endianness : BigCodec ID : A_AC3Duration : 34mn 55sBit rate mode : ConstantBit rate : 256 KbpsChannel(s) : 2 channelsChannel positions : Front: L RSampling rate : 48.0 KHzBit depth : 16 bitsCompression mode : LossyDelay relative to video : 3msStream size : 64.0 MiB (3%)Language : EnglishDefault : YesForced : No

3.-.Andrey.Fedosov.vs.Nat.Heaven.60fps.HDTV.720p.x264-ENG-lrn.mkv

GeneralUnique ID : 233061330404456843836641707317137463865 (0xAF55FAC132AE2F6DBFE438F7D32F5A39)Complete name : E:\uTorrent.Temp\Temp\Boxcino Heavyweight Tournament (Quarterfinals) [60fps, HDTV 720p, ENG]\3.-.Andrey.Fedosov.vs.Nat.Heaven.60fps.HDTV.720p.x264-ENG-lrn.mkvFormat : MatroskaFormat version : Version 4 / Version 2File size : 730 MiBDuration : 12mn 18sOverall bit rate : 8 291 KbpsMovie name : 'Boxcino Heavyweight Tournament (Quarterfinals) [60fps, HDTV 720p, ENG]' by lrn © 2015Encoded date : UTC 2010-02-22 21:41:31Writing application : mkvmerge v5.9.0 ('On The Loose') built on Dec 9 2012 15:37:01Writing library : libebml v1.3.0 + libmatroska v1.4.0
VideoID : 1Format : AVCFormat/Info : Advanced Video CodecFormat profile : High@L4.0Format settings, CABAC : YesFormat settings, ReFrames : 3 framesCodec ID : V_MPEG4/ISO/AVCDuration : 12mn 18sBit rate : 7 870 KbpsWidth : 1 280 pixelsHeight : 720 pixelsDisplay aspect ratio : 16:9Frame rate mode : ConstantFrame rate : 60.000 fpsOriginal frame rate : 59.940 fpsStandard : ComponentColor space : YUVChroma subsampling : 4:2:0Bit depth : 8 bitsScan type : ProgressiveBits/(Pixel*Frame) : 0.142Stream size : 693 MiB (95%)Default : YesForced : NoColor primaries : BT.709Transfer characteristics : BT.709Matrix coefficients : BT.709Color range : Limited
AudioID : 2Format : AC-3Format/Info : Audio Coding 3Mode extension : CM (complete main)Format settings, Endianness : BigCodec ID : A_AC3Duration : 12mn 18sBit rate mode : ConstantBit rate : 256 KbpsChannel(s) : 2 channelsChannel positions : Front: L RSampling rate : 48.0 KHzBit depth : 16 bitsCompression mode : LossyDelay relative to video : 23msStream size : 22.5 MiB (3%)Language : EnglishDefault : YesForced : No

4.-.Steve.Vukosa.vs.Donovan.Dennis.60fps.HDTV.720p.x264-ENG-lrn.mkv

GeneralUnique ID : 172261876500069483202634577457557715291 (0x81986E3D4B6D7A6A85A7FF7185FAB95B)Complete name : E:\uTorrent.Temp\Temp\Boxcino Heavyweight Tournament (Quarterfinals) [60fps, HDTV 720p, ENG]\4.-.Steve.Vukosa.vs.Donovan.Dennis.60fps.HDTV.720p.x264-ENG-lrn.mkvFormat : MatroskaFormat version : Version 4 / Version 2File size : 1.39 GiBDuration : 23mn 41sOverall bit rate : 8 428 KbpsMovie name : 'Boxcino Heavyweight Tournament (Quarterfinals) [60fps, HDTV 720p, ENG]' by lrn © 2015Encoded date : UTC 2010-02-22 21:41:31Writing application : mkvmerge v5.9.0 ('On The Loose') built on Dec 9 2012 15:37:01Writing library : libebml v1.3.0 + libmatroska v1.4.0
VideoID : 1Format : AVCFormat/Info : Advanced Video CodecFormat profile : High@L4.0Format settings, CABAC : YesFormat settings, ReFrames : 3 framesCodec ID : V_MPEG4/ISO/AVCDuration : 23mn 41sBit rate : 8 004 KbpsWidth : 1 280 pixelsHeight : 720 pixelsDisplay aspect ratio : 16:9Frame rate mode : ConstantFrame rate : 60.000 fpsOriginal frame rate : 59.940 fpsStandard : ComponentColor space : YUVChroma subsampling : 4:2:0Bit depth : 8 bitsScan type : ProgressiveBits/(Pixel*Frame) : 0.145Stream size : 1.32 GiB (95%)Default : YesForced : NoColor primaries : BT.709Transfer characteristics : BT.709Matrix coefficients : BT.709Color range : Limited
AudioID : 2Format : AC-3Format/Info : Audio Coding 3Mode extension : CM (complete main)Format settings, Endianness : BigCodec ID : A_AC3Duration : 23mn 41sBit rate mode : ConstantBit rate : 256 KbpsChannel(s) : 2 channelsChannel positions : Front: L RSampling rate : 48.0 KHzBit depth : 16 bitsCompression mode : LossyDelay relative to video : 2msStream size : 43.4 MiB (3%)Language : EnglishDefault : YesForced : No

_________________
Показать сообщения:    

Текущее время: Сегодня 06:12

Часовой пояс: GMT



Вы не можете начинать темы
Вы не можете отвечать на сообщения
Вы не можете редактировать свои сообщения
Вы не можете удалять свои сообщения
Вы не можете голосовать в опросах
Вы не можете прикреплять файлы к сообщениям
Вы не можете скачивать файлы