Важное объявление!
У Нас Все раздачи мультитрекерные, при нуле пиров в релизах, можете смело вставать на закачку!
 
Автор Сообщение

HUNTER

Стаж:
4 года 8 месяцев
Сообщений:
62034

Репутация: 101

[+] [-]
Вне форума [Профиль] [ЛС]

1/4 Финала Турнира "Boxcino" в Первом Среднем Весе / Boxcino Super Welterweight Tournament: Quarterfinals-
Дата/Год выпуска: 13.02.2015
Вид спорта: Бокс
Язык комментариев: Английский
Место проведения: "Mohegan Sun Casino", Анкасвилл, Монтвилл, Коннектикут, США.-Описание: Четвертьфинал турнира "Boxcino" в "Первом среднем весе".-Автор рипа/записи: nabucghost-Качество: HDTV 720p
Формат: MKV
Видео: 1280x720 (16:9), 59,940 fps, H264, ~8000 kbps avg, ~0.144 bit/pixel
Аудио: 48 kHz, AC3, 2/0 (L,R) ch, ~256.00 kbps avg-

Список боев

1. Stanyslav Skorokhod [8-0] vs. Michael Moore [13-0] - 6 Rounds in the Super Welterweight Division
2. Ricardo Pinell [10-1-1] vs. John Thompson [14-1] - 6 Rounds in the Super Welterweight Division
3. Vito Gasparyan [14-3-5] vs. Simeon Hardy [13-0] - 6 Rounds in the Super Welterweight Division
4. Brandon Adams [15-1] vs. Alex Perez [18-1] - 6 Rounds in the Super Welterweight Division

Продолжительность

1. Stanyslav Skorokhod vs. Michael Moore (0:17:48)
2. Ricardo Pinell vs. John Thompson (0:26:39)
3. Vito Gasparyan vs. Simeon Hardy (0:29:00)
4. Brandon Adams vs. Alex Perez (0:25:56)

Скриншоты

MediaInfo

1.-.Stanyslav.Skorokhod.vs.Michael.Moore.60fps.HDTV.720p.x264-ENG-lrn.mkv
GeneralUnique ID : 208139924070766593947985269339507197503 (0x9C964A8EA43D6178B06067C792F5063F)Complete name : E:\uTorrent.Temp\Done\Boxcino Super Welterweight Tournament (Quarterfinals) [60fps, HDTV 720p, ENG]\1.-.Stanyslav.Skorokhod.vs.Michael.Moore.60fps.HDTV.720p.x264-ENG-lrn.mkvFormat : MatroskaFormat version : Version 4 / Version 2File size : 1.05 GiBDuration : 17mn 48sOverall bit rate : 8 441 KbpsMovie name : 'Boxcino Super Welterweight Tournament (Quarterfinals) [60fps, HDTV 720p, ENG]' by lrn © 2015Encoded date : UTC 2010-02-22 21:41:31Writing application : mkvmerge v5.9.0 ('On The Loose') built on Dec 9 2012 15:37:01Writing library : libebml v1.3.0 + libmatroska v1.4.0
VideoID : 1Format : AVCFormat/Info : Advanced Video CodecFormat profile : High@L4.0Format settings, CABAC : YesFormat settings, ReFrames : 3 framesCodec ID : V_MPEG4/ISO/AVCDuration : 17mn 48sBit rate : 8 017 KbpsWidth : 1 280 pixelsHeight : 720 pixelsDisplay aspect ratio : 16:9Frame rate mode : ConstantFrame rate : 60.000 fpsOriginal frame rate : 59.940 fpsStandard : ComponentColor space : YUVChroma subsampling : 4:2:0Bit depth : 8 bitsScan type : ProgressiveBits/(Pixel*Frame) : 0.145Stream size : 1 021 MiB (95%)Default : YesForced : NoColor primaries : BT.709Transfer characteristics : BT.709Matrix coefficients : BT.709Color range : Limited
AudioID : 2Format : AC-3Format/Info : Audio Coding 3Mode extension : CM (complete main)Format settings, Endianness : BigCodec ID : A_AC3Duration : 17mn 48sBit rate mode : ConstantBit rate : 256 KbpsChannel(s) : 2 channelsChannel positions : Front: L RSampling rate : 48.0 KHzBit depth : 16 bitsCompression mode : LossyDelay relative to video : 17msStream size : 32.6 MiB (3%)Language : EnglishDefault : YesForced : No

2.-.Ricardo.Pinell.vs.John.Thompson.60fps.HDTV.720p.x264-ENG-lrn.mkv

GeneralUnique ID : 247776031000195953565129986479199914070 (0xBA67ED81B5CC10349D4A453D32A48856)Complete name : E:\uTorrent.Temp\Done\Boxcino Super Welterweight Tournament (Quarterfinals) [60fps, HDTV 720p, ENG]\2.-.Ricardo.Pinell.vs.John.Thompson.60fps.HDTV.720p.x264-ENG-lrn.mkvFormat : MatroskaFormat version : Version 4 / Version 2File size : 1.56 GiBDuration : 26mn 39sOverall bit rate : 8 381 KbpsMovie name : 'Boxcino Super Welterweight Tournament (Quarterfinals) [60fps, HDTV 720p, ENG]' by lrn © 2015Encoded date : UTC 2010-02-22 21:41:31Writing application : mkvmerge v5.9.0 ('On The Loose') built on Dec 9 2012 15:37:01Writing library : libebml v1.3.0 + libmatroska v1.4.0
VideoID : 1Format : AVCFormat/Info : Advanced Video CodecFormat profile : High@L4.0Format settings, CABAC : YesFormat settings, ReFrames : 3 framesCodec ID : V_MPEG4/ISO/AVCDuration : 26mn 39sBit rate : 7 958 KbpsWidth : 1 280 pixelsHeight : 720 pixelsDisplay aspect ratio : 16:9Frame rate mode : ConstantFrame rate : 59.880 fpsOriginal frame rate : 59.940 fpsStandard : ComponentColor space : YUVChroma subsampling : 4:2:0Bit depth : 8 bitsScan type : ProgressiveBits/(Pixel*Frame) : 0.144Stream size : 1.48 GiB (95%)Default : YesForced : NoColor primaries : BT.709Transfer characteristics : BT.709Matrix coefficients : BT.709Color range : Limited
AudioID : 2Format : AC-3Format/Info : Audio Coding 3Mode extension : CM (complete main)Format settings, Endianness : BigCodec ID : A_AC3Duration : 26mn 39sBit rate mode : ConstantBit rate : 256 KbpsChannel(s) : 2 channelsChannel positions : Front: L RSampling rate : 48.0 KHzBit depth : 16 bitsCompression mode : LossyDelay relative to video : 12msStream size : 48.8 MiB (3%)Default : YesForced : No

3.-.Vito.Gasparyan.vs.Simeon.Hardy.60fps.HDTV.720p.x264-ENG-lrn.mkv

GeneralUnique ID : 206351205513122882557046255612967984368 (0x9B3DCBEC6478AFFA8861874F3DA71CF0)Complete name : E:\uTorrent.Temp\Done\Boxcino Super Welterweight Tournament (Quarterfinals) [60fps, HDTV 720p, ENG]\3.-.Vito.Gasparyan.vs.Simeon.Hardy.60fps.HDTV.720p.x264-ENG-lrn.mkvFormat : MatroskaFormat version : Version 4 / Version 2File size : 1.70 GiBDuration : 29mn 0sOverall bit rate : 8 378 KbpsMovie name : 'Boxcino Super Welterweight Tournament (Quarterfinals) [60fps, HDTV 720p, ENG]' by lrn © 2015Encoded date : UTC 2010-02-22 21:41:31Writing application : mkvmerge v5.9.0 ('On The Loose') built on Dec 9 2012 15:37:01Writing library : libebml v1.3.0 + libmatroska v1.4.0
VideoID : 1Format : AVCFormat/Info : Advanced Video CodecFormat profile : High@L4.0Format settings, CABAC : YesFormat settings, ReFrames : 3 framesCodec ID : V_MPEG4/ISO/AVCDuration : 29mn 0sBit rate : 7 956 KbpsWidth : 1 280 pixelsHeight : 720 pixelsDisplay aspect ratio : 16:9Frame rate mode : ConstantFrame rate : 60.000 fpsOriginal frame rate : 59.940 fpsStandard : ComponentColor space : YUVChroma subsampling : 4:2:0Bit depth : 8 bitsScan type : ProgressiveBits/(Pixel*Frame) : 0.144Stream size : 1.61 GiB (95%)Default : YesForced : NoColor primaries : BT.709Transfer characteristics : BT.709Matrix coefficients : BT.709Color range : Limited
AudioID : 2Format : AC-3Format/Info : Audio Coding 3Mode extension : CM (complete main)Format settings, Endianness : BigCodec ID : A_AC3Duration : 29mn 0sBit rate mode : ConstantBit rate : 256 KbpsChannel(s) : 2 channelsChannel positions : Front: L RSampling rate : 48.0 KHzBit depth : 16 bitsCompression mode : LossyDelay relative to video : 8msStream size : 53.1 MiB (3%)Default : YesForced : No

4.-.Brandon.Adams.vs.Alex.Perez.60fps.HDTV.720p.x264-ENG-lrn.mkv

GeneralUnique ID : 239851696524187016776631337788480697759 (0xB471C1A70597EA56819FC89C73CC359F)Complete name : E:\uTorrent.Temp\Done\Boxcino Super Welterweight Tournament (Quarterfinals) [60fps, HDTV 720p, ENG]\4.-.Brandon.Adams.vs.Alex.Perez.60fps.HDTV.720p.x264-ENG-lrn.mkvFormat : MatroskaFormat version : Version 4 / Version 2File size : 1.52 GiBDuration : 25mn 56sOverall bit rate : 8 376 KbpsMovie name : 'Boxcino Super Welterweight Tournament (Quarterfinals) [60fps, HDTV 720p, ENG]' by lrn © 2015Encoded date : UTC 2010-02-22 21:41:31Writing application : mkvmerge v5.9.0 ('On The Loose') built on Dec 9 2012 15:37:01Writing library : libebml v1.3.0 + libmatroska v1.4.0
VideoID : 1Format : AVCFormat/Info : Advanced Video CodecFormat profile : High@L4.0Format settings, CABAC : YesFormat settings, ReFrames : 3 framesCodec ID : V_MPEG4/ISO/AVCDuration : 25mn 56sBit rate : 7 953 KbpsWidth : 1 280 pixelsHeight : 720 pixelsDisplay aspect ratio : 16:9Frame rate mode : ConstantFrame rate : 60.000 fpsOriginal frame rate : 59.940 fpsStandard : ComponentColor space : YUVChroma subsampling : 4:2:0Bit depth : 8 bitsScan type : ProgressiveBits/(Pixel*Frame) : 0.144Stream size : 1.44 GiB (95%)Default : YesForced : NoColor primaries : BT.709Transfer characteristics : BT.709Matrix coefficients : BT.709Color range : Limited
AudioID : 2Format : AC-3Format/Info : Audio Coding 3Mode extension : CM (complete main)Format settings, Endianness : BigCodec ID : A_AC3Duration : 25mn 56sBit rate mode : ConstantBit rate : 256 KbpsChannel(s) : 2 channelsChannel positions : Front: L RSampling rate : 48.0 KHzBit depth : 16 bitsCompression mode : LossyDelay relative to video : 24msStream size : 47.5 MiB (3%)Default : YesForced : No

_________________
Показать сообщения:    

Текущее время: Сегодня 05:55

Часовой пояс: GMT



Вы не можете начинать темы
Вы не можете отвечать на сообщения
Вы не можете редактировать свои сообщения
Вы не можете удалять свои сообщения
Вы не можете голосовать в опросах
Вы не можете прикреплять файлы к сообщениям
Вы не можете скачивать файлы
Наши партнеры: интернет магазин Ивановского трикотажа textilla.ru