Важное объявление!
У Нас Все раздачи мультитрекерные, при нуле пиров в релизах, можете смело вставать на закачку!
 
Автор Сообщение

HUNTER

Стаж:
4 года 4 месяца
Сообщений:
56808

Репутация: 101

[+] [-]
Вне форума [Профиль] [ЛС]

1941 Запрещенная правда / Заборонена правда
Год выпуска : 2013
Страна : Украина
Жанр : Документальный
Режиссер : Игорь Кобрин
Язык : Русский
Продолжительность : ~ 00:45:00
Субтитры : Украинские (вшитые)-Описание: На телеканале "Украина" стартовала премьера 5-тисерийного документального авторского фильма "1941". В нем раскрываются факты Второй мировой, о которых молчат учебники истории.
Фильм, созданный известным режиссером-документалистом Игорем Кобриным, раскроет зрителям канала "Украина" неизвестные факты Второй мировой войны. Автор фильма затронет вопросы, которые позволят украинцам по-другому взглянуть на суть военного противостояния СССР и Германии, и ход боевых действий в той войне.
Фильм "1941" целиком построен на уникальных архивных документах с использованием кадров кинохроники 30-40-х годов XX столетия. Авторы проекта в эфире канала "Украина" выдвинут гипотезу развития политических событий довоенных лет, подтвержденную документальными источниками, проанализируют ход боевых действий 1941 года – в первые дни войны на территории Советского Союза, а также связанные с ними решения и действия высшего руководства страны. Кроме того в фильме будут приведены доказательства недостоверности многих устоявшихся мнений о той войне, которые знакомы каждому жителю Украины из школьной программы.
После демонстрации первого, а затем заключительного эпизода фильма, зрители также увидят две части пост-шоу "1941. Заборонена правда", в ходе которого прямо в студии его участники обсудят фильм и его возможное влияние на жизнь украинцев. Гостями студии ток-шоу станут историки, политологи и политики.
Чем на самом деле была Вторая мировая война для жителей Советского Союза? И чем она остается для современных украинцев? Какие факты до сих пор скрыты в архивах? Ответы – в 5-серийном документальном фильме "1941", премьера которого состоится на канале "Украина" зимой 2013 года.-Список серий:

Фильм № 1 «Гроза над Европой» ● Эфир 7 февраля 2013 года | Продолжительность: 0:42:30 |

Скриншоты

Скринлист

MI

General
Complete name : Фильм № 1 _Гроза над Европой - (07.02.2013)_DVB by Kaddafi.mpg
Format : MPEG-PS
File size : 1.41 GiB
Duration : 42mn 30s
Overall bit rate mode : Variable
Overall bit rate : 4 760 Kbps
Video #224
ID : 224 (0xE0)
Format : MPEG Video
Format version : Version 2
Format profile : Main@Main
Format settings, BVOP : Yes
Format settings, Matrix : Custom
Duration : 42mn 30s
Bit rate mode : Variable
Bit rate : 4 473 Kbps
Maximum bit rate : 15.0 Mbps
Width : 720 pixels
Height : 576 pixels
Display aspect ratio : 4:3
Frame rate : 25.000 fps
Standard : PAL
Color space : YUV
Chroma subsampling : 4:2:0
Bit depth : 8 bits
Scan type : Interlaced
Scan order : Top Field First
Compression mode : Lossy
Bits/(Pixel*Frame) : 0.431
Stream size : 1.33 GiB (94%)
Audio #192
ID : 192 (0xC0)
Format : MPEG Audio
Format version : Version 1
Format profile : Layer 2
Duration : 42mn 30s
Bit rate mode : Constant
Bit rate : 192 Kbps
Channel(s) : 1 channel
Sampling rate : 48.0 KHz
Compression mode : Lossy
Stream size : 58.4 MiB (4%)

Фильм № 2 «Гонка на опережение» ● Эфир 14 февраля 2013 года | Продолжительность: 0:45:01 |

Скриншоты

Скринлист

MI

General
Complete name : Фильм № 2 _Гонка на опережение - (14.02.2013)_DVB by Kaddafi.mpg
Format : MPEG-PS
File size : 1.50 GiB
Duration : 45mn 1s
Overall bit rate mode : Variable
Overall bit rate : 4 760 Kbps
Video #224
ID : 224 (0xE0)
Format : MPEG Video
Format version : Version 2
Format profile : Main@Main
Format settings, BVOP : Yes
Format settings, Matrix : Custom
Duration : 45mn 1s
Bit rate mode : Variable
Bit rate : 4 473 Kbps
Maximum bit rate : 15.0 Mbps
Width : 720 pixels
Height : 576 pixels
Display aspect ratio : 4:3
Frame rate : 25.000 fps
Standard : PAL
Color space : YUV
Chroma subsampling : 4:2:0
Bit depth : 8 bits
Scan type : Interlaced
Scan order : Top Field First
Compression mode : Lossy
Bits/(Pixel*Frame) : 0.431
Stream size : 1.41 GiB (94%)
Audio #192
ID : 192 (0xC0)
Format : MPEG Audio
Format version : Version 1
Format profile : Layer 2
Duration : 45mn 1s
Bit rate mode : Constant
Bit rate : 192 Kbps
Channel(s) : 1 channel
Sampling rate : 48.0 KHz
Compression mode : Lossy
Stream size : 61.8 MiB (4%)

Фильм № 3 «Оглушительное молчание» ● Эфир 21 февраля 2013 года | Продолжительность: 0:45:06 |

Скриншоты

Скринлист

MI

General
Complete name : Фильм № 3 _Оглушительное молчание - (21.02.2013)_DVB by Kaddafi.mpg
Format : MPEG-PS
File size : 1.50 GiB
Duration : 45mn 6s
Overall bit rate mode : Variable
Overall bit rate : 4 760 Kbps
Video #224
ID : 224 (0xE0)
Format : MPEG Video
Format version : Version 2
Format profile : Main@Main
Format settings, BVOP : Yes
Format settings, Matrix : Custom
Duration : 45mn 6s
Bit rate mode : Variable
Bit rate : 4 473 Kbps
Maximum bit rate : 15.0 Mbps
Width : 720 pixels
Height : 576 pixels
Display aspect ratio : 4:3
Frame rate : 25.000 fps
Standard : PAL
Color space : YUV
Chroma subsampling : 4:2:0
Bit depth : 8 bits
Scan type : Interlaced
Scan order : Top Field First
Compression mode : Lossy
Bits/(Pixel*Frame) : 0.431
Stream size : 1.41 GiB (94%)
Audio #192
ID : 192 (0xC0)
Format : MPEG Audio
Format version : Version 1
Format profile : Layer 2
Duration : 45mn 6s
Bit rate mode : Constant
Bit rate : 192 Kbps
Channel(s) : 1 channel
Sampling rate : 48.0 KHz
Compression mode : Lossy
Stream size : 61.9 MiB (4%)

Фильм № 4 «Не вдаваясь в первопричины» ● Эфир 28 февраля 2013 года | Продолжительность: 0:45:35 |

Скриншоты

Скринлист

MI

General
Complete name : Фильм № 4 _Не вдаваясь в первопричины - (28.02.2013)_DVB by Kaddafi.mpg
Format : MPEG-PS
File size : 1.52 GiB
Duration : 45mn 35s
Overall bit rate mode : Variable
Overall bit rate : 4 759 Kbps
Video #224
ID : 224 (0xE0)
Format : MPEG Video
Format version : Version 2
Format profile : Main@Main
Format settings, BVOP : Yes
Format settings, Matrix : Custom
Format settings, GOP : M=1, N=28
Duration : 45mn 35s
Bit rate mode : Variable
Bit rate : 4 472 Kbps
Maximum bit rate : 15.0 Mbps
Width : 720 pixels
Height : 576 pixels
Display aspect ratio : 4:3
Frame rate : 25.000 fps
Standard : PAL
Color space : YUV
Chroma subsampling : 4:2:0
Bit depth : 8 bits
Scan type : Interlaced
Scan order : Top Field First
Compression mode : Lossy
Bits/(Pixel*Frame) : 0.431
Stream size : 1.42 GiB (94%)
Audio #192
ID : 192 (0xC0)
Format : MPEG Audio
Format version : Version 1
Format profile : Layer 2
Duration : 45mn 35s
Bit rate mode : Constant
Bit rate : 192 Kbps
Channel(s) : 1 channel
Sampling rate : 48.0 KHz
Compression mode : Lossy
Stream size : 62.6 MiB (4%)

Фильм № 5 «За родину ! За Сталина !» ● Эфир 7 марта 2013 года | Продолжительность: 0:46:36 |

Скриншоты

Скринлист

MI

General
Complete name : Фильм № 5 _За родину ! За Сталина ! - (07.03.2013)_DVB by Kaddafi.mpg
Format : MPEG-PS
File size : 1.55 GiB
Duration : 46mn 36s
Overall bit rate mode : Variable
Overall bit rate : 4 759 Kbps
Video #224
ID : 224 (0xE0)
Format : MPEG Video
Format version : Version 2
Format profile : Main@Main
Format settings, BVOP : Yes
Format settings, Matrix : Custom
Format settings, GOP : M=1, N=36
Duration : 46mn 36s
Bit rate mode : Variable
Bit rate : 4 472 Kbps
Maximum bit rate : 15.0 Mbps
Width : 720 pixels
Height : 576 pixels
Display aspect ratio : 4:3
Frame rate : 25.000 fps
Standard : PAL
Color space : YUV
Chroma subsampling : 4:2:0
Bit depth : 8 bits
Scan type : Interlaced
Scan order : Top Field First
Compression mode : Lossy
Bits/(Pixel*Frame) : 0.431
Stream size : 1.46 GiB (94%)
Audio #192
ID : 192 (0xC0)
Format : MPEG Audio
Format version : Version 1
Format profile : Layer 2
Duration : 46mn 36s
Bit rate mode : Constant
Bit rate : 192 Kbps
Channel(s) : 1 channel
Sampling rate : 48.0 KHz
Compression mode : Lossy
Stream size : 64.0 MiB (4%)
-Пост - шоу (обсуждение в студии) Здесь-Релиз от специально для -Качество: DVB
Формат: MPG
Видео кодек: MPEG2
Аудио кодек: MPEG1
Видео: MPEG2 Video 720x576 (4:3) 25.00fps ~4 473 Kbps, 0.431 bit/pixel
Аудио: MPEG Audio 48000Hz 1 channels 192 Кбит/сек

Внимание ! Раздача ведётся путём добавления новых серий !!!

Внимание ! Раздача ведётся путём добавления новых серий
Внимание ! Раздача ведётся путём добавления новых серий; при каждом добавлении создаётся новый торрент.
Чтобы начать докачку новой серии, пользователям необходимо сделать следующее:
1) остановить скачивание
2) удалить старый торрент у себя из клиента (старые серии удалять не надо)
3) скачать новый торрент и запустить его у себя в клиенте вместо старого, при этом указать клиенту путь в старую папку куда и должно происходить скачивание новых серий.
Ваш клиент при этом должен произвести хеширование (проверку) старой папки (если не производит сам - помогите ему сделать это), и будет докачивать только те серии которых у вас ещё нет. Старые серии при этом не удаляются, а продолжают раздаваться!
Eсли вы уже удалили старые серии, то предотвратить повторную закачку старых серий можно, отжав галочку в соответствовавших местах при запуске нового торрента.

Без ошибок !!! (Отчёты VideoReDo)

Фильм № 1

Фильм № 2

Фильм № 3

Фильм № 4

Фильм № 5


Добавлен Фильм № 5 - «За родину ! За Сталина !» !!!Обновите торрент файл !!!
-
Сообщения из этой темы были выделены в отдельный топик Выделено из: 1941 Запрещенная правда / Заборонена правда (Фильм № 1-3 из 5) (Игорь Кобрин)... [4349632]
cedr
Внимание : Кроме загрузки Фильма № 5, просьба перекачать Фильм № 1, так как я его изменил, там небыло финальных титров полных, телеканал испортил их тем, что сразу включил Пост-шоу после 1 фильма. Титры (роли) взял от Фильма № 2 (хорошо получилось).
С Фильмом № 5 всё ещё сложнее, опять титры испортили из-за Пост-шоу, а просто взять от другого фильма немог, так как именно в последнем фильме во время титров играла другая песня, в итоге всё получилось сделать качественно. Концовка (роли) взял из другого фильма, а мелодию заменил на ту что и должна быть.

-
Сообщения из этой темы были выделены в отдельный топик Выделено из: 1941 Запрещенная правда / Заборонена правда (Фильм № 1-5 из 5) (Игорь Кобрин)... [4349632]
mpv777

_________________
Показать сообщения:    

Текущее время: Сегодня 12:55

Часовой пояс: GMT



Вы не можете начинать темы
Вы не можете отвечать на сообщения
Вы не можете редактировать свои сообщения
Вы не можете удалять свои сообщения
Вы не можете голосовать в опросах
Вы не можете прикреплять файлы к сообщениям
Вы не можете скачивать файлы