Ивановский Торрент трекер
Яндекс.Погода
Статистика раздачи
Размер:  13.54 GB   |    Зарегистрирован:  5 месяцев 13 дней   |    Скачан:  0 раз
Сидов:  1  [  0 KB/s  ]   Подробная статистика пиров
 
     
 
 
 

[Цитировать]
HUNTER

1:54
Running

Страна: Канада
Жанр: драма, спорт
Год выпуска: 2016
Продолжительность: 01:45:50
Перевод: Субтитры
Субтитры: английские (web, bluray), немецкие, французские (web, bluray), русские
Оригинальная аудиодорожка: французский
Режиссер: Ян Инглэнд / Yan England
В ролях: Антуан-Оливье Пилон, Софи Нелисс, Lou-Pascal Tremblay, Давид Бутен, Патрис Годин, Роберт Нэйлор, Энтони Терриен, Гийом Готье, Irdens Exantus, Karl-Antoine Suprice
Описание:
16-летний Тим - застенчивый, умный и спортивно одаренный юноша. Окружение побуждает его превзойти самого себя и перейти грань человеческих возможностей, за которой находится точка невозврата.
- || [box=#161C1E,#161C1E]
участник фестиваля[/box]2O18 года
-Тип релиза: BDRip 1080p (рип от Narkyy@NCmt)
Контейнер: MKV
Видео: AVC (x264), 1920x1038 (1.85:1) at 23,976 fps, 16300 Кbps
Аудио 1: DTS; 1536 Kbps; CBR; 6 ch; 48 khz | Французский |
Аудио 2: AC3; 192 Kbps; CBR; 2 ch; 48 khz | Французский | - Commentary by Yan England / Actors
Формат субтитров: softsub (SRT);

Скриншоты || x264 Info || MediaInfo || Notes

MediaInfo

Код:General
Unique ID : 202769780053452918111139308657327613328 (0x988C0A03E931E0A4B9A2897F8C422590)
Complete name : 1.54.2016.RUSSUB.1080p.BluRay.x264-NCmt.mkv
Format : Matroska
Format version : Version 4 / Version 2
File size : 13.5 GiB
Duration : 1 h 45 min
Overall bit rate : 18.3 Mb/s
Movie name : 1:54 [1080p] [2016] RUSSUB
Encoded date : UTC 2018-01-19 16:35:38
Writing application : mkvmerge v7.8.0 ('River Man') 32bit built on Mar 27 2015 16:18:02
Writing library : libebml v1.3.1 + libmatroska v1.4.2
Video
ID : 1
Format : AVC
Format/Info : Advanced Video Codec
Format profile : High@L4.1
Format settings : CABAC / 4 Ref Frames
Format settings, CABAC : Yes
Format settings, RefFrames : 4 frames
Codec ID : V_MPEG4/ISO/AVC
Duration : 1 h 45 min
Bit rate : 16.3 Mb/s
Width : 1 920 pixels
Height : 1 038 pixels
Display aspect ratio : 1.85:1
Frame rate mode : Constant
Frame rate : 23.976 (24000/1001) FPS
Color space : YUV
Chroma subsampling : 4:2:0
Bit depth : 8 bits
Scan type : Progressive
Bits/(Pixel*Frame) : 0.340
Stream size : 12.0 GiB (89%)
Title : profile.php?mode=viewprofile&u=22488948
Writing library : x264 core 148 r2762+56 6284cf3 t_mod_Custom [8-bit@all X86_64]
Encoding settings : cabac=1 / ref=4 / deblock=1:-3:-3 / analyse=0x3:0x133 / me=umh / subme=11 / psy=1 / fade_compensate=0.00 / psy_rd=0.95:0.05 / mixed_ref=1 / me_range=32 / chroma_me=1 / trellis=2 / 8x8dct=1 / cqm=0 / deadzone=21,11 / fast_pskip=0 / chroma_qp_offset=-3 / threads=6 / lookahead_threads=1 / sliced_threads=0 / nr=0 / decimate=0 / interlaced=0 / bluray_compat=0 / constrained_intra=0 / fgo=0 / bframes=6 / b_pyramid=2 / b_adapt=2 / b_bias=0 / direct=3 / weightb=1 / open_gop=0 / weightp=2 / keyint=240 / keyint_min=23 / scenecut=40 / intra_refresh=0 / rc_lookahead=240 / rc=crf / mbtree=0 / crf=17.4000 / qcomp=0.70 / qpmin=0:0:0 / qpmax=69:69:69 / qpstep=4 / vbv_maxrate=62500 / vbv_bufsize=78125 / crf_max=0.0 / nal_hrd=none / filler=0 / ip_ratio=1.30 / pb_ratio=1.20 / aq=2:0.75 / aq-sensitivity=15.00 / aq-factor=1.00:1.00:1.00 / aq2=0 / aq3=0 / zones=387,686,crf=14.5
Language : French
Default : Yes
Forced : No
Audio #1
ID : 2
Format : DTS
Format/Info : Digital Theater Systems
Codec ID : A_DTS
Duration : 1 h 45 min
Bit rate mode : Constant
Bit rate : 1 509 kb/s
Channel(s) : 6 channels
Channel positions : Front: L C R, Side: L R, LFE
Sampling rate : 48.0 kHz
Frame rate : 93.750 FPS (512 SPF)
Bit depth : 16 bits
Compression mode : Lossy
Stream size : 1.12 GiB (8%)
Language : French
Default : Yes
Forced : No
Audio #2
ID : 3
Format : AC-3
Format/Info : Audio Coding 3
Codec ID : A_AC3
Duration : 1 h 45 min
Bit rate mode : Constant
Bit rate : 192 kb/s
Channel(s) : 2 channels
Channel positions : Front: L R
Sampling rate : 48.0 kHz
Frame rate : 31.250 FPS (1536 SPF)
Bit depth : 16 bits
Compression mode : Lossy
Stream size : 145 MiB (1%)
Title : Commentary with Writer/Director Yan England, Actors Lou-Pascal Tremblay, Antoine-Olivier Pilon, and Actress Sophie Nélisse
Language : French
Service kind : Complete Main
Default : No
Forced : No
Text #1
ID : 4
Format : UTF-8
Codec ID : S_TEXT/UTF8
Codec ID/Info : UTF-8 Plain Text
Language : Russian
Default : Yes
Forced : No
Text #2
ID : 5
Format : UTF-8
Codec ID : S_TEXT/UTF8
Codec ID/Info : UTF-8 Plain Text
Language : German
Default : No
Forced : No
Text #3
ID : 6
Format : UTF-8
Codec ID : S_TEXT/UTF8
Codec ID/Info : UTF-8 Plain Text
Title : web
Language : English
Default : No
Forced : No
Text #4
ID : 7
Format : UTF-8
Codec ID : S_TEXT/UTF8
Codec ID/Info : UTF-8 Plain Text
Title : bluray
Language : English
Default : No
Forced : No
Text #5
ID : 8
Format : UTF-8
Codec ID : S_TEXT/UTF8
Codec ID/Info : UTF-8 Plain Text
Title : web
Language : French
Default : No
Forced : No
Text #6
ID : 9
Format : UTF-8
Codec ID : S_TEXT/UTF8
Codec ID/Info : UTF-8 Plain Text
Title : bluray
Language : French
Default : No
Forced : No
Menu
00:00:00.000 : en:Chapter 01
00:07:30.950 : en:Chapter 02
00:13:56.836 : en:Chapter 03
00:19:35.174 : en:Chapter 04
00:29:43.156 : en:Chapter 05
00:35:59.491 : en:Chapter 06
00:44:58.154 : en:Chapter 07
00:52:10.669 : en:Chapter 08
00:56:14.705 : en:Chapter 09
01:02:36.169 : en:Chapter 10
01:07:37.679 : en:Chapter 11
01:13:33.326 : en:Chapter 12
01:19:14.917 : en:Chapter 13
01:26:14.294 : en:Chapter 14
01:33:34.651 : en:Chapter 15
01:42:48.371 : en:Chapter 16

x264 Info

[box=#F5F5F5,#F5F5F5]x264 [info]: frame I:934 Avg QP:15.19 size:242485[/box]x264 [info]: frame P:32888 Avg QP:16.38 size:145002x264 [info]: frame B:118417 Avg QP:18.08 size: 69159x264 [info]: consecutive B-frames: 1.9% 3.6% 9.3% 11.8% 9.8% 60.6% 3.1%
Цитата:[box=#F5F5F5,#F5F5F5] За поиск исходника, огромная благодарность Ltcorbis[/box]
[iv-torrents.ru].t82638.torrent
Торрент: Зарегистрирован [ 2018-08-05 17:06 ] · E5B93C2828ED5383347A9E7FFC689BFD5ECC8BF7

Скачать .torrent

Скачать

34 KB

Статус: проверено
Скачан: 0 раз
Размер: 13.54 GB
terms.php


Показать сообщения:    

Текущее время: 19-Янв 10:50

Часовой пояс: UTC ± 0


Вы не можете начинать темы
Вы не можете отвечать на сообщения
Вы не можете редактировать свои сообщения
Вы не можете удалять свои сообщения
Вы не можете голосовать в опросах
Вы не можете прикреплять файлы к сообщениям
Вы можете скачивать файлы

!ВНИМАНИЕ!
Сайт не предоставляет электронные версии произведений, а занимается лишь коллекционированием и каталогизацией ссылок, присылаемых и публикуемых на форуме нашими читателями. Если вы являетесь правообладателем какого-либо представленного материала и не желаете, чтобы ссылка на него находилась в нашем каталоге, свяжитесь с нами, и мы незамедлительно удалим ее. Файлы для обмена на трекере предоставлены пользователями сайта, и администрация не несет ответственности за их содержание. Просьба не заливать файлы, защищенные авторскими правами, а также файлы нелегального содержания!