Важное объявление!
У Нас Все раздачи мультитрекерные, при нуле пиров в релизах, можете смело вставать на закачку!
 
Автор Сообщение

HUNTER

Стаж:
4 года 7 месяцев
Сообщений:
61449

Репутация: 101

[+] [-]
Вне форума [Профиль] [ЛС]

-13 часов: Тайные солдаты Бенгази / 13 Hours-«In 2012, the threat level in Benghazi, Libya was deemed 'critical'. When everything went wrong, six men had the courage to do what was right»
-Страна: США
Студия: 3 Arts Entertainment, Bay Films, Dune Films, Latina Pictures, Paramount Pictures
Жанр: боевик, триллер, драма, военный
Год выпуска: 2016
Мировая премьера: 12 января 2016
Российская премьера: 28 января 2016, «Централ Партнершип»
Дата выхода DVD: 12 июля 2016, «Новый Диск»
Дата выхода Blu-Ray: 12 июля 2016, «Новый Диск»
Продолжительность: 02:18:32
Перевод: Профессиональный (дублированный) [Лицензия]
Cубтитры: русские, английские, украинские
Оригинальная аудиодорожка: английский-Режиссер: Майкл Бэй / Michael Bay-В ролях: Джон Красински, Джеймс Бэдж Дэйл, Пабло Шрайбер, Дэвид Денман, Доминик Фумуса, Макс Мартини, Алексия Бальер, Дэвид Костабайл, Пейман Моаади, Мэтт Летчер-Описание: 2012 год. Бенгази, Ливия. Группа террористов решает «отпраздновать» события 11 сентября нападением на американское посольство. Шестерке бойцов из элитного спецотряда приказано вмешаться только в крайнем случае. Но когда под угрозой десятки жизней, долг и совесть берут верх над субординацией. И мужественные солдаты без колебаний вступают в бой с яростной группировкой боевиков. Бой, который для всех шестерых, скорее всего, станет последним.-Бонусы: нет- [img]https://rating.kinopoisk.ru/882327.gif[/img] -Качество: DVD9 R5
Формат: DVD-Video
Видео кодек: MPEG2
Аудио кодек: AC3
Видео: PAL 16:9 (720x576(0.535)) MPEG Video, 25,000 кадр/сек, 5547 Кбит/сек
Аудио #1: English (Dolby AC3, 6 ch) 448 Кбит/сек, 48,0 КГц
Аудио #2: Russian (Dolby AC3, 6 ch) 448 Кбит/сек, 48,0 КГц
Аудио #3: Ukrainian (Dolby AC3, 6 ch) 448 Кбит/сек, 48,0 КГц--

DVDInfo

Title: 13.chasov.2016.D.DVD9
Size: 7.35 Gb ( 7 711 788,00 KBytes ) - DVD-9
Enabled regions: 1, 2, 3, 4, 5, 6, 7, 8
VTS_01 :
Play Length: 00:00:00
Video: PAL 16:9 (720x576) VBR, Auto Letterboxed
Audio:
Not specified (Dolby AC3, 2 ch)
Not specified (Dolby AC3, 2 ch)
Not specified (Dolby AC3, 2 ch)
Not specified (Dolby AC3, 2 ch)
Not specified (Dolby AC3, 2 ch)
Not specified (Dolby AC3, 2 ch)
Not specified (Dolby AC3, 2 ch)
Not specified (Dolby AC3, 2 ch)
Subtitles:
Not specified
Not specified
Not specified
Not specified
Not specified
Not specified
Not specified
Not specified
Not specified
Not specified
Not specified
Not specified
Not specified
Not specified
Not specified
Not specified
Not specified
Not specified
VTS_02 :
Play Length: 00:00:00+{00:00:00}+{00:00:00}+{00:00:00}
Video: PAL 16:9 (720x576) VBR, Auto Letterboxed
VTS_03 :
Play Length: 00:00:00+{00:00:00}
Video: PAL 16:9 (720x576) VBR, Auto Letterboxed
VTS_04 :
Play Length: 00:00:00+{00:00:00}+{00:00:00}
Video: PAL 16:9 (720x576) VBR, Auto Letterboxed
VTS_05 :
Play Length: 00:00:00+{00:00:00}+{00:00:00}+{00:00:00}
Video: PAL 16:9 (720x576) VBR, Auto Letterboxed
VTS_06 :
Play Length: 00:00:00+{00:00:00}
Video: PAL 16:9 (720x576) VBR, Auto Letterboxed
VTS_07 :
Play Length: 02:18:32+00:00:10+00:00:15+{00:00:00}
Video: PAL 16:9 (720x576) VBR, Auto Letterboxed
Audio:
English, AC3, 3/2 (L,C,R,SL,SR)+LFE ch, 448 kbps, Delay -49 mSec
Russian, AC3, 3/2 (L,C,R,SL,SR)+LFE ch, 448 kbps, Delay -49 mSec
Ukrainian, AC3, 3/2 (L,C,R,SL,SR)+LFE ch, 448 kbps, Delay -49 mSec
Subtitles:
English
Russian
Ukrainian
Russian
Ukrainian
* Menus Information *
VIDEO_TS Menu
Video:
PAL 16:9 (720x576) VBR
Auto Pan&Scan
English Language Unit :
Title Menu
VTS_01 Menu
Video:
PAL 16:9 (720x576) VBR
Auto Pan&Scan
English Language Unit :
Root Menu
VTS_02 Menu
Video:
NTSC 4:3 (720x480) VBR
Auto Pan&Scan, Auto Letterboxed
English Language Unit :
Root Menu
Subpicture Menu
Audio Menu
Angle menu
Chapter (PTT) Menu
VTS_03 Menu
Video:
PAL 16:9 (720x576) VBR
Auto Pan&Scan
Audio:
Not specified (Dolby AC3, 2 ch)
English Language Unit :
Root Menu
Audio Menu
Angle menu
VTS_04 Menu
Video:
PAL 16:9 (720x576) VBR
Auto Pan&Scan
English Language Unit :
Root Menu
Angle menu
VTS_05 Menu
Video:
NTSC 4:3 (720x480) VBR
Auto Pan&Scan, Auto Letterboxed
English Language Unit :
Root Menu
VTS_06 Menu
Video:
NTSC 4:3 (720x480) VBR
Auto Pan&Scan, Auto Letterboxed
English Language Unit :
Root Menu
VTS_07 Menu
Video:
PAL 16:9 (720x576) VBR
Auto Pan&Scan
Audio:
Not specified (Dolby AC3, 2 ch)
English Language Unit :
Root Menu
Subpicture Menu
Audio Menu
Angle menu
Chapter (PTT) Menu

MediaInfo

Общее
Полное имя : D:\Новинки 2016\13.chasov.2016.D.DVD9\VIDEO_TS\VTS_07_2.VOB
Формат : MPEG-PS
Размер файла : 1024 Мбайт
Продолжительность : 20 м.
Режим общего битрейта : Переменный
Общий поток : 7031 Кбит/сек
Видео
Идентификатор : 224 (0xE0)
Формат : MPEG Video
Версия формата : Version 2
Профиль формата : Main@Main
Параметр BVOP формата : Да
Параметр матрицы формата : Выборочная
Параметр GOP формата : Variable
Продолжительность : 20 м.
Вид битрейта : Переменный
Битрейт : 5547 Кбит/сек
Максимальный битрейт : 9800 Кбит/сек
Ширина : 720 пикселей
Высота : 576 пикселей
Соотношение сторон : 16:9
Частота кадров : 25,000 кадров/сек
Стандарт вещания : Component
Цветовое пространство : YUV
Субдискретизация насыщенности : 4:2:0
Битовая глубина : 8 бит
Тип развёртки : Прогрессивная
Порядок развёртки : Верхнее поле первое
Метод сжатия : С потерями
Бит/(Пиксели*Кадры) : 0.535
Временной код первого кадра : 01:19:58:14
Оригинал временного кода : Group of pictures header
Размер потока : 808 Мбайт (79%)
Основные цвета : BT.601 PAL
Характеристики трансфера : BT.470 System B, BT.470 System G
Коэффициенты матрицы : BT.601
Аудио #1
Идентификатор : 189 (0xBD)-128 (0x80)
Формат : AC-3
Формат/Информация : Audio Coding 3
Расширение режима : CM (complete main)
Параметр Endianness формата : Big
Режим смешивания : DVD-Video
Продолжительность : 20 м.
Вид битрейта : Постоянный
Битрейт : 448 Кбит/сек
Каналы : 6 каналов
Расположение каналов : Front: L C R, Side: L R, LFE
Частота : 48,0 КГц
Частота кадров : 31,250 кадров/сек (1536 spf)
Метод сжатия : С потерями
Задержка видео : -696 мс.
Размер потока : 65,2 Мбайт (6%)
Аудио #2
Идентификатор : 189 (0xBD)-129 (0x81)
Формат : AC-3
Формат/Информация : Audio Coding 3
Расширение режима : CM (complete main)
Параметр Endianness формата : Big
Режим смешивания : DVD-Video
Продолжительность : 20 м.
Вид битрейта : Постоянный
Битрейт : 448 Кбит/сек
Каналы : 6 каналов
Расположение каналов : Front: L C R, Side: L R, LFE
Частота : 48,0 КГц
Частота кадров : 31,250 кадров/сек (1536 spf)
Метод сжатия : С потерями
Задержка видео : -696 мс.
Размер потока : 65,2 Мбайт (6%)
Аудио #3
Идентификатор : 189 (0xBD)-130 (0x82)
Формат : AC-3
Формат/Информация : Audio Coding 3
Расширение режима : CM (complete main)
Параметр Endianness формата : Big
Режим смешивания : DVD-Video
Продолжительность : 20 м.
Вид битрейта : Постоянный
Битрейт : 448 Кбит/сек
Каналы : 6 каналов
Расположение каналов : Front: L C R, Side: L R, LFE
Частота : 48,0 КГц
Частота кадров : 31,250 кадров/сек (1536 spf)
Метод сжатия : С потерями
Задержка видео : -696 мс.
Размер потока : 65,2 Мбайт (6%)
Текст #1
Идентификатор : 189 (0xBD)-32 (0x20)
Формат : RLE
Формат/Информация : Run-length encoding
Режим смешивания : DVD-Video
Продолжительность : 20 м.
Задержка видео : -400 мс.
Текст #2
Идентификатор : 189 (0xBD)-33 (0x21)
Формат : RLE
Формат/Информация : Run-length encoding
Режим смешивания : DVD-Video
Продолжительность : 20 м.
Задержка видео : -400 мс.
Текст #3
Идентификатор : 189 (0xBD)-34 (0x22)
Формат : RLE
Формат/Информация : Run-length encoding
Режим смешивания : DVD-Video
Продолжительность : 20 м.
Задержка видео : 1 с. 240 мс.
Текст #4
Идентификатор : 189 (0xBD)-35 (0x23)
Формат : RLE
Формат/Информация : Run-length encoding
Режим смешивания : DVD-Video
Продолжительность : 20 м.
Задержка видео : 1 с. 240 мс.
Текст #5
Идентификатор : 189 (0xBD)-36 (0x24)
Формат : RLE
Формат/Информация : Run-length encoding
Режим смешивания : DVD-Video
Продолжительность : 20 м.
Задержка видео : -320 мс.
Текст #6
Идентификатор : 189 (0xBD)-37 (0x25)
Формат : RLE
Формат/Информация : Run-length encoding
Режим смешивания : DVD-Video
Продолжительность : 20 м.
Задержка видео : -320 мс.

Скриншоты меню

Скриншоты фильма


-
-Раздача от группы:

_________________
Показать сообщения:    

Текущее время: Сегодня 19:35

Часовой пояс: GMT



Вы не можете начинать темы
Вы не можете отвечать на сообщения
Вы не можете редактировать свои сообщения
Вы не можете удалять свои сообщения
Вы не можете голосовать в опросах
Вы не можете прикреплять файлы к сообщениям
Вы не можете скачивать файлы
Наши партнеры: интернет магазин Ивановского трикотажа textilla.ru