Важное объявление!
У Нас Все раздачи мультитрекерные, при нуле пиров в релизах, можете смело вставать на закачку!
 
Автор Сообщение

HUNTER

Стаж:
4 года 4 месяца
Сообщений:
56790

Репутация: 101

[+] [-]
Вне форума [Профиль] [ЛС]

12 раундов / 12 Rounds
Страна: США
Жанр: боевик, триллер, криминал
Год выпуска: 2009
Продолжительность: 01:40:37
Перевод: Профессиональный (дублированный)
Cубтитры: нет
Оригинальная аудиодорожка: нет
Режиссер: Ренни Харлин / Renny Harlin
В ролях: Джон Сина, Эйден Гиллен, Эшли Скотт, Стив Харрис, Брайан Дж. Уайт, Гонсало Менендес, Тейлор Коул
Описание: Дэнни Фишер, новоорлеанский полицейский, единолично арестовывает Майлса Джексона, одного из наиболее опасных и разыскиваемых преступников в мире. Однако при этом страшный несчастный случай уносит жизнь подруги Майлса. Годом позже жаждущий мести Джексон совершает побег из тюрьмы и похищает подругу Дэнни. Вынужденный принять участие в 12 раундах опасных игр, расставленных по всему городу, Дэнни будет делать все, чтобы остановить больную игру этого сумасшедшего и достигнуть своей истинной цели прежде, чем пострадают невинные люди, а любовь всей его жизни уйдет навсегда.
Доп. информация: HDTV имеет иное наполнение кадра чем BD http://screenshotcomparison.com/comparison/121953
Сэмпл: https://yadi.sk/i/WWkPH_9zg5via
Тип релиза: HDTV 1080i
Контейнер: TS
Видео: AVC, 1920x1080 (16/9), 25.000 fps, 12.8 Mbps (0.247 bit/pixel)
Аудио: MP2, 48.0 KHz, 2 ch, 192 Kbps, CBR (Russian)

MediaInfo

Общее
Идентификатор : 3 (0x3)
Полное имя : K:\12 раундов.ts
Формат : MPEG-TS
Размер файла : 9,80 Гбайт
Продолжительность : 1 ч. 40 м.
Режим общего битрейта : Переменный
Общий поток : 13,9 Мбит/сек
Видео
Идентификатор : 2141 (0x85D)
Идентификатор меню : 21004 (0x520C)
Формат : AVC
Формат/Информация : Advanced Video Codec
Профиль формата : Main@L4.0
Параметр CABAC формата : Да
Параметр ReFrames формата : 3 кадра
Идентификатор кодека : 27
Продолжительность : 1 ч. 40 м.
Битрейт : 13,1 Мбит/сек
Ширина : 1920 пикселей
Высота : 1080 пикселей
Соотношение сторон : 16:9
Частота кадров : 25,000 кадров/сек
Стандарт вещания : Component
Цветовое пространство : YUV
Субдискретизация насыщенности : 4:2:0
Битовая глубина : 8 бит
Тип развёртки : Чересстрочная
Порядок развёртки : Верхнее поле первое
Бит/(Пиксели*Кадры) : 0.252
Размер потока : 9,18 Гбайт (94%)
Основные цвета : BT.709
Характеристики трансфера : BT.709
Коэффициенты матрицы : BT.709
Аудио
Идентификатор : 2142 (0x85E)
Идентификатор меню : 21004 (0x520C)
Формат : MPEG Audio
Версия формата : Version 1
Профиль формата : Layer 2
Идентификатор кодека : 4
Продолжительность : 1 ч. 40 м.
Вид битрейта : Постоянный
Битрейт : 192 Кбит/сек
Каналы : 2 канала
Частота : 48,0 КГц
Метод сжатия : С потерями
Задержка видео : -8 мс.
Размер потока : 138 Мбайт (1%)
Язык : Russian

Скриншоты


_________________
Показать сообщения:    

Текущее время: Сегодня 10:49

Часовой пояс: GMT



Вы не можете начинать темы
Вы не можете отвечать на сообщения
Вы не можете редактировать свои сообщения
Вы не можете удалять свои сообщения
Вы не можете голосовать в опросах
Вы не можете прикреплять файлы к сообщениям
Вы не можете скачивать файлы