Важное объявление!
У Нас Все раздачи мультитрекерные, при нуле пиров в релизах, можете смело вставать на закачку!
 
Автор Сообщение

HUNTER

Стаж:
4 года 6 месяцев
Сообщений:
60899

Репутация: 101

[+] [-]
Вне форума [Профиль] [ЛС]

Информация о фильме
Название: 12 раундов: Перезагрузка
Оригинальное название: 12 Rounds: Reloaded
Год выхода: 2013
Жанр: боевик
Режиссер: Роэль Рейн
В ролях: Брайан Маркинсон, Рэнди Ортон, Синди Басби, Шон Роджерсон, Патрик Гилмор, Джесси Хатч, Колин Лоуренс, Челси Рейст, Фрейзер Айтчесон, Том Стивенс
О фильме: В фильме "12 раундов 2: Перезагрузка / 12 Rounds: Reloaded" Вы увидите продолжение первой части фильма "12 раундов / 12 Rounds (2009)", в котором новоорлеанский полицейский Дэнни Фишер противостоял Майлсу Джексону - наиболее опасному преступнику в мире.

Выпущено: США / WWE Studios
Продолжительность: 01:34:32
Озвучивание: Профессиональное (многоголосое)
Файл
Формат: MKV
Качество: BDRip 720p
Видео: 5123 kb/s, 1280x720
Аудио: Russian: AC3, 384 kb/s (6 ch) / English: DTS, 1510 kb/s (6 ch)

MI

Format : Matroska
Format version : Version 2
File size : 4.61 GiB
Duration : 1h 34mn
Overall bit rate : 7 014 Kbps
Encoded date : UTC 2013-07-11 16:26:11
Writing application : mkvmerge v2.9.8 ('C'est le bon') built on Nov 20 2009 13:01:15
Writing library : libebml v0.7.9 + libmatroska v0.8.1
Video
ID : 1
Format : AVC
Format/Info : Advanced Video Codec
Format profile : High@L4.1
Format settings, CABAC : Yes
Format settings, ReFrames : 9 frames
Codec ID : V_MPEG4/ISO/AVC
Duration : 1h 34mn
Bit rate : 5 123 Kbps
Width : 1 280 pixels
Height : 720 pixels
Display aspect ratio : 16:9
Frame rate : 23.976 fps
Color space : YUV
Chroma subsampling : 4:2:0
Bit depth : 8 bits
Scan type : Progressive
Bits/(Pixel*Frame) : 0.232
Stream size : 3.28 GiB (71%)
Title : 12.Rounds.2.2013.BluRay.720p.DTS.x264-CHD
Writing library : x264 core 132 r2309 3b1f1f7
Encoding settings : cabac=1 / ref=9 / deblock=1:-3:-3 / analyse=0x3:0x113 / me=umh / subme=10 / psy=1 / psy_rd=1.00:0.05 / mixed_ref=1 / me_range=32 / chroma_me=1 / trellis=2 / 8x8dct=1 / cqm=0 / deadzone=21,11 / fast_pskip=0 / chroma_qp_offset=-2 / threads=8 / lookahead_threads=1 / sliced_threads=0 / nr=0 / decimate=1 / interlaced=0 / bluray_compat=0 / constrained_intra=0 / bframes=5 / b_pyramid=2 / b_adapt=2 / b_bias=0 / direct=3 / weightb=1 / open_gop=0 / weightp=2 / keyint=250 / keyint_min=23 / scenecut=40 / intra_refresh=0 / rc=2pass / mbtree=0 / bitrate=5123 / ratetol=1.0 / qcomp=0.70 / qpmin=0 / qpmax=69 / qpstep=4 / cplxblur=20.0 / qblur=0.5 / ip_ratio=1.40 / pb_ratio=1.30 / aq=2:0.90
Language : English
Default : No
Forced : No
Audio #1
ID : 2
Format : AC-3
Format/Info : Audio Coding 3
Mode extension : CM (complete main)
Format settings, Endianness : Big
Codec ID : A_AC3
Duration : 1h 34mn
Bit rate mode : Constant
Bit rate : 384 Kbps
Channel(s) : 6 channels
Channel positions : Front: L C R, Side: L R, LFE
Sampling rate : 48.0 KHz
Bit depth : 16 bits
Compression mode : Lossy
Stream size : 259 MiB (5%)
Language : Russian
Default : Yes
Forced : Yes
Audio #2
ID : 3
Format : DTS
Format/Info : Digital Theater Systems
Codec ID : A_DTS
Duration : 1h 34mn
Bit rate mode : Constant
Bit rate : 1 510 Kbps
Channel(s) : 6 channels
Channel positions : Front: L C R, Side: L R, LFE
Sampling rate : 48.0 KHz
Bit depth : 24 bits
Compression mode : Lossy
Stream size : 1 017 MiB (22%)
Title : dts 5.1 1536kbps
Language : English
Default : No
Forced : No

Скриншоты

-Источник:

_________________
Показать сообщения:    

Текущее время: Сегодня 06:54

Часовой пояс: GMT



Вы не можете начинать темы
Вы не можете отвечать на сообщения
Вы не можете редактировать свои сообщения
Вы не можете удалять свои сообщения
Вы не можете голосовать в опросах
Вы не можете прикреплять файлы к сообщениям
Вы не можете скачивать файлы
Наши партнеры: интернет магазин Ивановского трикотажа textilla.ru