Важное объявление!
У Нас Все раздачи мультитрекерные, при нуле пиров в релизах, можете смело вставать на закачку!
Статистика раздачи
Размер:     |    Зарегистрирован:     |    Скачан:     |   
Нет
 
     
 
 
Автор Сообщение

nikola120

Стаж:
1 год 5 месяцев
Сообщений:
59
Вне форума [Профиль] [ЛС]

11.22.63 / 11.22.63 сезон 1, серии 1-8 из 8 Год выпуска: 2016
Страна: США, Bad Robot, Warner Bros. Television
Жанр: Фантастика, Триллер, Детектив - Продолжительность: ~00:54:00 серия (1 серия - 01:20:41)
Перевод: Многоголосый закадровый, профессиональный - NewStudio
Автор перевода: Ирина Гвозденко
Субтитры: отсутствуют - Режиссёр: Джеймс Стронг, Фред Туа, Джеймс Кент
Актеры: Джеймс Франко, Крис Купер, Джош Дюамель, Люси Фрай, Сара Гадон, Черри Джонс, Т.Р. Найт, Джордж МакКэй, Даниэль Уэббер - Описание: Фантастический фильм по роману Стивена Кинга «11/22/63». Джейк Эппинг – учитель английского языка в средней школе. Один из его учеников пишет эссе о том, что случилось 50 лет назад.
Отец одного мальчика пришел домой пьяным и забил молотком свою жену, двух сыновей и дочь.
Мальчик остался жив, но с тех пор хромает. Друг Джейка предлагает ему отправиться в 1958 год и предотвратить убийство президента Джона Кеннеди.
Джейк не только спасает семью того мальчика, но и выслеживает убийцу Кеннеди.
Качество: HDTV 1080p
Формат: mkv
Видео кодек: H.264
Аудио кодек: AC-3
Видео: H.264/AVC, 1920x964 (16:9), 23,976 fps ~9156 kb/s
Аудио Rus: AC-3, 48,0 kHz, 6 ch, 384 kb/s — многоголосый закадровый
Аудио Eng: AC-3, 48,0 kHz, 6 ch, 640 kb/s — оригинал

MediaInfo

Общее
Уникальный идентификатор : 184521252008802756183196088080758467301 (0x8AD1801E465D0D5D9D493B9EC947EAE5)
Полное имя : D:\11.22.63 (сезон 1) HDTV 1080ip - NewStudio\11.22.63.s01e01.HDTV.1080p.NewStudio.TV.mkv
Формат : Matroska
Версия формата : Version 4 / Version 2
Размер файла : 5,74 Гбайт
Продолжительность : 1 ч. 20 м.
Общий поток : 10,2 Мбит/сек
Дата кодирования : UTC 2016-02-16 22:16:21
Программа кодирования : mkvmerge v8.2.0 ('World of Adventure') 32bit
Библиотека кодирования : libebml v1.3.1 + libmatroska v1.4.2
Видео
Идентификатор : 1
Формат : AVC
Формат/Информация : Advanced Video Codec
Профиль формата : High@L4.1
Параметр CABAC формата : Да
Параметр ReFrames формата : 4 кадра
Идентификатор кодека : V_MPEG4/ISO/AVC
Продолжительность : 1 ч. 20 м.
Битрейт : 9156 Кбит/сек
Ширина : 1920 пикселей
Высота : 964 пикселя
Соотношение сторон : 1,992
Режим частоты кадров : Постоянный
Частота кадров : 23,976 (24000/1001) кадра/сек
Цветовое пространство : YUV
Субдискретизация насыщенности : 4:2:0
Битовая глубина : 8 бит
Тип развёртки : Прогрессивная
Бит/(Пиксели*Кадры) : 0.206
Размер потока : 5,16 Гбайт (90%)
Библиотека кодирования : x264 core 148 r2638 7599210
Настройки программы : cabac=1 / ref=4 / deblock=1:-3:-3 / analyse=0x3:0x133 / me=umh / subme=11 / psy=1 / psy_rd=1.00:0.00 / mixed_ref=1 / me_range=32 / chroma_me=1 / trellis=2 / 8x8dct=1 / cqm=0 / deadzone=21,11 / fast_pskip=0 / chroma_qp_offset=-2 / threads=20 / lookahead_threads=2 / sliced_threads=0 / nr=0 / decimate=1 / interlaced=0 / bluray_compat=0 / constrained_intra=0 / bframes=5 / b_pyramid=2 / b_adapt=2 / b_bias=0 / direct=3 / weightb=1 / open_gop=0 / weightp=2 / keyint=250 / keyint_min=23 / scenecut=40 / intra_refresh=0 / rc_lookahead=60 / rc=crf / mbtree=1 / crf=17.0 / qcomp=0.60 / qpmin=0 / qpmax=69 / qpstep=4 / ip_ratio=1.40 / aq=1:1.00
Язык : English
Default : Да
Forced : Нет
Цветовой диапазон : Limited
Коэффициенты матрицы : BT.709
Аудио #1
Идентификатор : 2
Формат : AC-3
Формат/Информация : Audio Coding 3
Расширение режима : CM (complete main)
Параметр Endianness формата : Big
Идентификатор кодека : A_AC3
Продолжительность : 1 ч. 20 м.
Вид битрейта : Постоянный
Битрейт : 384 Кбит/сек
Каналы : 6 каналов
Расположение каналов : Front: L C R, Side: L R, LFE
Частота : 48,0 КГц
Частота кадров : 31,250 кадров/сек (1536 spf)
Метод сжатия : С потерями
Размер потока : 222 Мбайт (4%)
Заголовок : NewStudio.TV
Язык : Russian
Default : Да
Forced : Нет
Аудио #2
Идентификатор : 3
Формат : AC-3
Формат/Информация : Audio Coding 3
Расширение режима : CM (complete main)
Параметр Endianness формата : Big
Идентификатор кодека : A_AC3
Продолжительность : 1 ч. 20 м.
Вид битрейта : Постоянный
Битрейт : 640 Кбит/сек
Каналы : 6 каналов
Расположение каналов : Front: L C R, Side: L R, LFE
Частота : 48,0 КГц
Частота кадров : 31,250 кадров/сек (1536 spf)
Метод сжатия : С потерями
Размер потока : 369 Мбайт (6%)
Язык : English
Default : Нет
Forced : Нет

Список серий:

01. The Rabbit Hole / Кроличья нора
02. The Kill Floor / Убой. 29 октября 1960-го
03. Other Voices, Other Rooms / Другие голоса, другие комнаты.
04. Eyes of Texas / Глаза Техаса
05. Truth / Правда
06. Happy Birthday, Lee Harvey Oswald / С днем рождения, Ли Харви Освальд
07. Soldier / Солдатик
08. The Day in Question / Тот самый день

Скриншоты:


_________________


Последний раз редактировалось: nikola120 (2016-04-10 08:17), всего редактировалось 2 раз(а)

nikola120

Стаж:
1 год 5 месяцев
Сообщений:
59
Вне форума [Профиль] [ЛС]

Сериал мне понравился.Рекомендую к просмотру

_________________

nikola120

Стаж:
1 год 5 месяцев
Сообщений:
59
Вне форума [Профиль] [ЛС]

добавлена заключительная серия сезона

_________________
Показать сообщения:    

Текущее время: Сегодня 16:43

Часовой пояс: GMT



Вы не можете начинать темы
Вы не можете отвечать на сообщения
Вы не можете редактировать свои сообщения
Вы не можете удалять свои сообщения
Вы не можете голосовать в опросах
Вы не можете прикреплять файлы к сообщениям
Вы не можете скачивать файлы