Важное объявление!
У Нас Все раздачи мультитрекерные, при нуле пиров в релизах, можете смело вставать на закачку!
Статистика раздачи
Размер:     |    Зарегистрирован:     |    Скачан:     |   
Нет
 
     
 
 
Автор Сообщение

HUNTER

Стаж:
5 лет
Сообщений:
68043

Репутация: 101

[+] [-]
Вне форума [Профиль] [ЛС]

108 минут
Дата/Год выпуска: 2014
Страна: Россия
Жанр: документальный
Продолжительность: 00:25:11
Перевод: Не требуется
Режиссер: Анастасия Екимова
Описание: Первый полёт человека в космос. Это событие изменило ход истории. Его ждали с нетерпением, но боялись в это поверить. Оно вошло в историю, как одно из величайших достояний человечества.
Фильм рассказывает об истории советской космонавтики, о подготовке к полёту и самом полёте Юрия Гагарина 12 апреля 1961 года в космос, о значимости этого события для человечества.
В фильме принимают участие: летчик-космонавт Владимир Титов, преподаватели Военно-воздушной академии имени Гагарина Алексей Соболевский и Александр Рябов, настоятель православного храма в Монино иерей Александр Буков.
Доп. информация: Производство: ЗАО "Телерадиокомпания "Мироздание"
Сэмпл: http://sendfile.su/1109122
качество: WEBRip
формат: AVI
Видео: DivX, 1500 Кбит/сек, 720 x 456 (1.579), 25.000 fps
Аудио: MP3, 96,0 Кбит/сек, 2 канала, 32,0 КГц

MediaInfo

ОбщееПолное имя : T:\Мои раздачи\108 минут (2014)\108 минут (2014).aviФормат : AVIФормат/Информация : Audio Video InterleaveРазмер файла : 292 МбайтПродолжительность : 25 м.Общий поток : 1605 Кбит/секПрограмма кодирования : VirtualDubMod 1.5.10.2 (build 2540/release)Библиотека кодирования : VirtualDubMod build 2540/release
ВидеоИдентификатор : 0Формат : MPEG-4 VisualПрофиль формата : Advanced Simple@L5Параметр BVOP формата : 2Параметр QPel формата : НетПараметр GMC формата : Без точки переходаПараметр матрицы формата : Default (H.263)Идентификатор кодека : XVIDИдентификатор кодека/Подсказка : XviDПродолжительность : 25 м.Битрейт : 1500 Кбит/секШирина : 720 пикселейВысота : 456 пикселейСоотношение сторон : 16:10Частота кадров : 25,000 кадров/секЦветовое пространство : YUVСубдискретизация насыщенности : 4:2:0Битовая глубина : 8 битТип развёртки : ПрогрессивнаяМетод сжатия : С потерямиБит/(Пиксели*Кадры) : 0.183Размер потока : 272 Мбайт (93%)Библиотека кодирования : XviD 1.2.1 (UTC 2008-12-04)
АудиоИдентификатор : 1Формат : MPEG AudioВерсия формата : Version 1Профиль формата : Layer 3Идентификатор кодека : 55Идентификатор кодека/Подсказка : MP3Продолжительность : 25 м.Вид битрейта : ПостоянныйБитрейт : 96,0 Кбит/секКаналы : 2 каналаЧастота : 32,0 КГцМетод сжатия : С потерямиРазмер потока : 17,4 Мбайт (6%)Выравнивание : Соединение по промежуткамПродолжительность промежутка : 40 мс. (1,00 видеокадр)Время предзагрузки промежутка : 504 мс.Библиотека кодирования : LAME3.98rНастройки программы : -m s -V 4 -q 2 -lowpass 15.1 -b 96

Скриншоты


_________________
Показать сообщения:    

Текущее время: Сегодня 22:46

Часовой пояс: GMT



Вы не можете начинать темы
Вы не можете отвечать на сообщения
Вы не можете редактировать свои сообщения
Вы не можете удалять свои сообщения
Вы не можете голосовать в опросах
Вы не можете прикреплять файлы к сообщениям
Вы не можете скачивать файлы