Важное объявление!
У Нас Все раздачи мультитрекерные, при нуле пиров в релизах, можете смело вставать на закачку!
 
Автор Сообщение

HUNTER

Стаж:
4 года 11 месяцев
Сообщений:
66039

Репутация: 101

[+] [-]
Вне форума [Профиль] [ЛС]

1066 - Нормандское завоевание Англии / 1066 - The Battle for Middle Earth
16:9 PAL R2
Страна: Великобритания
Студия: Hardy Pictures
Жанр: боевик, военный, история
Год выпуска: 2009
Продолжительность: 00:48:37 + 00:52:00 + 00:48:22
Перевод 1: Студийный (одноголосый закадровый) - SDI Media
Перевод 2: Любительский (двухголосый закадровый)
Cубтитры: нидерландские
Оригинальная аудиодорожка: английский
Режиссер: Джастин Харди / Justin Hardy
В ролях: Иэн Холм, Майк Бэйли, Френсис Маджи, Тим Плестер, Сёрен Бидер, Кейт Эмблер, Джемма Лоуренс, Сэм Харди, Катрин Бах, Эмбер Селеста ...
Описание: Фильм проливает свет на одно из самых темных событий в британской истории — Нормандское завоевание. Много лет люди знали лишь позицию британского короля, эта история покажет вам мнение участников сражения — воинов, сельских жителей. Эта история о людях трех различных народов — нормадцах, англичан и викингах.
Доп. информация: Диск собран из 1066 - The Battle for Middle Earth (2009)_DVD9 R2 найденного в сети. (Который на постере)
Меню: Cтатичное, озвученное, на английском.Меню неотредактировано, переключение звуковых дорожек с пульта.
Фильм автоматически стартует с рус. звук. дорожкой( SDI Media).
--Спасибо за рус. дорожку( SDI Media) -ukraine-
Спасибо за рус. двухголосый Magg555
-- --1066 - The Battle for Middle Earth (2009)_DVD9 R2_Part - 1_Sample_.rar
1066 - The Battle for Middle Earth (2009)_DVD9 R2_Part - 2_Sample_.rar
1066 - The Battle for Middle Earth (2009)_DVD9 R2_Part - 3_Sample_.rar-
-

Точка перехода на второй слой


-
-Синхронизация звук. дорожек Нордер
За что ему превеликая благодарность
--Тип релиза: DVD9 (Custom)
Контейнер: DVD-Video
Видео: PAL 16:9 (720x576) VBR Auto Letterboxed, ~ 7568.00 kbps avg
Аудио 1: Russian, AC3, 2/0 (L,R) ch, 192 kbps, Delay 0 mSec - VO SDI Media
Аудио 2: Russian, AC3, 2/0 (L,R) ch, 192 kbps, Delay 0 mSec - DVO
Аудио 3: English, AC3, 2/0 (L,R) ch, 224 kbps, Delay 0 mSec
Формат субтитров: prerendered (DVD/IDX+SUB)

MediaInfo

General
Complete name : I:\111\z_D_Disk\1066 - The Battle for Middle Earth (2009)_DVD9 R2\VIDEO_TS\VTS_02_2.VOB
Format : MPEG-PS
File size : 1 024 MiB
Duration : 18mn 38s
Overall bit rate mode : Variable
Overall bit rate : 7 683 Kbps
Video
ID : 224 (0xE0)
Format : MPEG Video
Format version : Version 2
Format profile : Main@Main
Format settings, BVOP : Yes
Format settings, Matrix : Custom
Format settings, GOP : M=3, N=12
Format settings, picture st : Frame
Duration : 18mn 37s
Bit rate mode : Variable
Bit rate : 6 922 Kbps
Maximum bit rate : 9 000 Kbps
Width : 720 pixels
Height : 576 pixels
Display aspect ratio : 16:9
Frame rate : 25.000 fps
Standard : PAL
Color space : YUV
Chroma subsampling : 4:2:0
Bit depth : 8 bits
Scan type : Interlaced
Scan order : Top Field First
Compression mode : Lossy
Bits/(Pixel*Frame) : 0.668
Time code of first frame : 10:19:28:12
Time code source : Group of pictures header
GOP, Open/Closed : Open
Stream size : 922 MiB (90%)
Audio #1
ID : 189 (0xBD)-128 (0x80)
Format : AC-3
Format/Info : Audio Coding 3
Mode extension : CM (complete main)
Format settings, Endianness : Big
Muxing mode : DVD-Video
Duration : 18mn 38s
Bit rate mode : Constant
Bit rate : 192 Kbps
Channel(s) : 2 channels
Channel positions : Front: L R
Sampling rate : 48.0 KHz
Bit depth : 16 bits
Compression mode : Lossy
Delay relative to video : -312ms
Stream size : 25.6 MiB (2%)
Audio #2
ID : 189 (0xBD)-129 (0x81)
Format : AC-3
Format/Info : Audio Coding 3
Mode extension : CM (complete main)
Format settings, Endianness : Big
Muxing mode : DVD-Video
Duration : 18mn 38s
Bit rate mode : Constant
Bit rate : 192 Kbps
Channel(s) : 2 channels
Channel positions : Front: L R
Sampling rate : 48.0 KHz
Bit depth : 16 bits
Compression mode : Lossy
Delay relative to video : -312ms
Stream size : 25.6 MiB (2%)
Audio #3
ID : 189 (0xBD)-130 (0x82)
Format : AC-3
Format/Info : Audio Coding 3
Mode extension : CM (complete main)
Format settings, Endianness : Big
Muxing mode : DVD-Video
Duration : 18mn 38s
Bit rate mode : Constant
Bit rate : 224 Kbps
Channel(s) : 2 channels
Channel positions : Front: L R
Sampling rate : 48.0 KHz
Bit depth : 16 bits
Compression mode : Lossy
Delay relative to video : -344ms
Stream size : 29.9 MiB (3%)
Menu-
-
-General
Complete name : I:\111\z_D_Disk\1066 - The Battle for Middle Earth (2009)_DVD9 R2\VIDEO_TS\VTS_03_2.VOB
Format : MPEG-PS
File size : 1 024 MiB
Duration : 18mn 32s
Overall bit rate mode : Variable
Overall bit rate : 7 719 Kbps
Video
ID : 224 (0xE0)
Format : MPEG Video
Format version : Version 2
Format profile : Main@Main
Format settings, BVOP : Yes
Format settings, Matrix : Custom
Format settings, GOP : M=3, N=12
Format settings, picture st : Frame
Duration : 18mn 32s
Bit rate mode : Variable
Bit rate : 6 958 Kbps
Maximum bit rate : 9 000 Kbps
Width : 720 pixels
Height : 576 pixels
Display aspect ratio : 16:9
Frame rate : 25.000 fps
Standard : PAL
Color space : YUV
Chroma subsampling : 4:2:0
Bit depth : 8 bits
Scan type : Interlaced
Scan order : Top Field First
Compression mode : Lossy
Bits/(Pixel*Frame) : 0.671
Time code of first frame : 10:18:38:20
Time code source : Group of pictures header
GOP, Open/Closed : Open
Stream size : 923 MiB (90%)
Audio #1
ID : 189 (0xBD)-128 (0x80)
Format : AC-3
Format/Info : Audio Coding 3
Mode extension : CM (complete main)
Format settings, Endianness : Big
Muxing mode : DVD-Video
Duration : 18mn 32s
Bit rate mode : Constant
Bit rate : 192 Kbps
Channel(s) : 2 channels
Channel positions : Front: L R
Sampling rate : 48.0 KHz
Bit depth : 16 bits
Compression mode : Lossy
Delay relative to video : -200ms
Stream size : 25.5 MiB (2%)
Audio #2
ID : 189 (0xBD)-129 (0x81)
Format : AC-3
Format/Info : Audio Coding 3
Mode extension : CM (complete main)
Format settings, Endianness : Big
Muxing mode : DVD-Video
Duration : 18mn 32s
Bit rate mode : Constant
Bit rate : 192 Kbps
Channel(s) : 2 channels
Channel positions : Front: L R
Sampling rate : 48.0 KHz
Bit depth : 16 bits
Compression mode : Lossy
Delay relative to video : -200ms
Stream size : 25.5 MiB (2%)
Audio #3
ID : 189 (0xBD)-130 (0x82)
Format : AC-3
Format/Info : Audio Coding 3
Mode extension : CM (complete main)
Format settings, Endianness : Big
Muxing mode : DVD-Video
Duration : 18mn 32s
Bit rate mode : Constant
Bit rate : 224 Kbps
Channel(s) : 2 channels
Channel positions : Front: L R
Sampling rate : 48.0 KHz
Bit depth : 16 bits
Compression mode : Lossy
Delay relative to video : -264ms
Stream size : 29.7 MiB (3%)
Menu-
-
-General
Complete name : I:\111\z_D_Disk\1066 - The Battle for Middle Earth (2009)_DVD9 R2\VIDEO_TS\VTS_04_2.VOB
Format : MPEG-PS
File size : 1 024 MiB
Duration : 18mn 40s
Overall bit rate mode : Variable
Overall bit rate : 7 668 Kbps
Video
ID : 224 (0xE0)
Format : MPEG Video
Format version : Version 2
Format profile : Main@Main
Format settings, BVOP : Yes
Format settings, Matrix : Custom
Format settings, GOP : M=3, N=12
Format settings, picture st : Frame
Duration : 18mn 40s
Bit rate mode : Variable
Bit rate : 6 907 Kbps
Maximum bit rate : 9 000 Kbps
Width : 720 pixels
Height : 576 pixels
Display aspect ratio : 16:9
Frame rate : 25.000 fps
Standard : PAL
Color space : YUV
Chroma subsampling : 4:2:0
Bit depth : 8 bits
Scan type : Interlaced
Scan order : Top Field First
Compression mode : Lossy
Bits/(Pixel*Frame) : 0.666
Time code of first frame : 10:18:58:06
Time code source : Group of pictures header
GOP, Open/Closed : Open
Stream size : 922 MiB (90%)
Audio #1
ID : 189 (0xBD)-128 (0x80)
Format : AC-3
Format/Info : Audio Coding 3
Mode extension : CM (complete main)
Format settings, Endianness : Big
Muxing mode : DVD-Video
Duration : 18mn 40s
Bit rate mode : Constant
Bit rate : 192 Kbps
Channel(s) : 2 channels
Channel positions : Front: L R
Sampling rate : 48.0 KHz
Bit depth : 16 bits
Compression mode : Lossy
Delay relative to video : -376ms
Stream size : 25.6 MiB (3%)
Audio #2
ID : 189 (0xBD)-129 (0x81)
Format : AC-3
Format/Info : Audio Coding 3
Mode extension : CM (complete main)
Format settings, Endianness : Big
Muxing mode : DVD-Video
Duration : 18mn 40s
Bit rate mode : Constant
Bit rate : 192 Kbps
Channel(s) : 2 channels
Channel positions : Front: L R
Sampling rate : 48.0 KHz
Bit depth : 16 bits
Compression mode : Lossy
Delay relative to video : -376ms
Stream size : 25.6 MiB (3%)
Audio #3
ID : 189 (0xBD)-130 (0x82)
Format : AC-3
Format/Info : Audio Coding 3
Mode extension : CM (complete main)
Format settings, Endianness : Big
Muxing mode : DVD-Video
Duration : 18mn 40s
Bit rate mode : Constant
Bit rate : 224 Kbps
Channel(s) : 2 channels
Channel positions : Front: L R
Sampling rate : 48.0 KHz
Bit depth : 16 bits
Compression mode : Lossy
Delay relative to video : -408ms
Stream size : 29.9 MiB (3%)
Text #1
ID : 189 (0xBD)-32 (0x20)
Format : RLE
Format/Info : Run-length encoding
Muxing mode : DVD-Video
Text #2
ID : 189 (0xBD)-33 (0x21)
Format : RLE
Format/Info : Run-length encoding
Muxing mode : DVD-Video
Menu

DVDInfo

Title: 1066 - The Battle for Middle Earth (2009)_DVD9 R2
Size: 7.88 Gb ( 8 265 290,00 KBytes ) - DVD-9
Enabled regions: 1, 2, 3, 4, 5, 6, 7, 8
VTS_01 :
Play Length: 00:00:00
Video: PAL 16:9 (720x576) VBR, Auto Letterboxed
Audio:
Nederlands (Dolby AC3, 2 ch)
VTS_02 :
Play Length: 00:48:37+{00:48:37}
Video: PAL 16:9 (720x576) VBR, Auto Letterboxed
Audio:
Russian, AC3, 2/0 (L,R) ch, 192 kbps, Delay 0 mSec
Russian, AC3, 2/0 (L,R) ch, 192 kbps, Delay 0 mSec
English, AC3, 2/0 (L,R) ch, 224 kbps, Delay 0 mSec
Subtitles:
Nederlands
Nederlands
VTS_03 :
Play Length: 00:52:00+{00:52:00}
Video: PAL 16:9 (720x576) VBR, Auto Letterboxed
Audio:
Russian, AC3, 2/0 (L,R) ch, 192 kbps, Delay 0 mSec
Russian, AC3, 2/0 (L,R) ch, 192 kbps, Delay 0 mSec
English, AC3, 2/0 (L,R) ch, 224 kbps, Delay 0 mSec
Subtitles:
Nederlands
Nederlands
VTS_04 :
Play Length: 00:48:22+{00:48:22}
Video: PAL 16:9 (720x576) VBR, Auto Letterboxed
Audio:
Russian, AC3, 2/0 (L,R) ch, 192 kbps, Delay 0 mSec
Russian, AC3, 2/0 (L,R) ch, 192 kbps, Delay 0 mSec
English, AC3, 2/0 (L,R) ch, 224 kbps, Delay 0 mSec
Subtitles:
Nederlands
Nederlands
* Menus Information *
VIDEO_TS Menu
Video:
NTSC 4:3 (720x480) VBR
Auto Pan&Scan, Auto Letterboxed
English Language Unit :
Title Menu
VTS_01 Menu
Video:
PAL 16:9 (720x576) VBR
Auto Letterboxed
Audio:
Not specified (Dolby AC3, 2 ch)
English Language Unit :
Root Menu
VTS_02 Menu
Video:
PAL 4:3 (720x576) VBR
English Language Unit :
Root Menu
VTS_03 Menu
Video:
PAL 4:3 (720x576) VBR
English Language Unit :
Root Menu
VTS_04 Menu
Video:
PAL 4:3 (720x576) VBR
English Language Unit :
Root Menu

П. О.

PgcDemux 1.2.0.5 - разделение компонентов диска на файлы;
MuxMan DVD authoring Professional 1.4.4 - мультиплексирование и авторинг DVD;
DVDRemake Pro 3.6.4 - реавторинг DVD;
DVD Shrink 3.2 - Сэмпл
VLC - Скриншоты-
-
- -
-
-MuxMan version 1.4.4
new project database size 400, base 2710018.
new pointer management list size 50.
new clipboard database size 20, base 66ed58.
16:19:49 Begin m2v survey of C:\Temp\1066\111\VideoFile.m2v.
Accepted audio C:\Temp\1066\1 часть ВО синхр.ac3
Accepted audio C:\Temp\1066\1 часть ДВО синхр.ac3
Accepted audio C:\Temp\1066\111\AudioFile_80.ac3
16:20:56 End survey of C:\Temp\1066\111\VideoFile.m2v.
16:22:18 Begin multiplex VTS01.
Title Segment List
Segment_1 non-seamless
Encoded stream 20 is script stream 1.
Encoded stream 21 is script stream 2.
Buffering audio track 1 file C:\Temp\1066\1 часть ВО синхр.ac3.
Buffering audio track 2 file C:\Temp\1066\1 часть ДВО синхр.ac3.
Buffering audio track 3 file C:\Temp\1066\111\AudioFile_80.ac3.
Maximum audio duration 145814 fields.
Multiplex delay set to 25257.
Positioned C:\Temp\1066\111\VideoFile.m2v to 00:00:00:00
Starting scene Segment_1_scn1 at 00:00:00:00
Starting scene Segment_1_scn2 at 00:12:37:02
Starting scene Segment_1_scn3 at 00:23:41:10
Starting scene Segment_1_scn4 at 00:36:57:00
Starting scene Segment_1_scn5 at 00:47:54:18
Starting scene Segment_1_scn6 at 00:48:36:17
SeqEnd at 94080CDC.
Bytes remaining in buffer = 0.
Bitrate - avg: 7566782, min: 2079507 (lba 1347213), max: 10274133 (lba 1307307).
Shortest GOP has 2 fields, longest GOP has 24 fields.
Fields: 145860, VOBU: 5907, Sectors: 1347279.
16:28:12 Begin multiplex VMG.
16:28:12 End multiplex.
--MuxMan version 1.4.4
new project database size 400, base 2a20018.
new pointer management list size 50.
new clipboard database size 20, base 61ed58.
16:29:42 Begin m2v survey of C:\Temp\1066\222\VideoFile.m2v.
Accepted audio C:\Temp\1066\2 часть ВО синхр.ac3
Accepted audio C:\Temp\1066\2 часть ДВО синхр.ac3
Accepted audio C:\Temp\1066\222\AudioFile_80.ac3
16:31:00 End survey of C:\Temp\1066\222\VideoFile.m2v.
16:31:37 Begin multiplex VTS01.
Title Segment List
Segment_1 non-seamless
Encoded stream 20 is script stream 1.
Encoded stream 21 is script stream 2.
Buffering audio track 1 file C:\Temp\1066\2 часть ВО синхр.ac3.
Buffering audio track 2 file C:\Temp\1066\2 часть ДВО синхр.ac3.
Buffering audio track 3 file C:\Temp\1066\222\AudioFile_80.ac3.
Maximum audio duration 155964 fields.
Multiplex delay set to 25257.
Positioned C:\Temp\1066\222\VideoFile.m2v to 00:00:00:00
Starting scene Segment_1_scn1 at 00:00:00:00
Starting scene Segment_1_scn2 at 00:14:03:24
Starting scene Segment_1_scn3 at 00:24:57:03
Starting scene Segment_1_scn4 at 00:27:41:22
Starting scene Segment_1_scn5 at 00:33:07:08
Starting scene Segment_1_scn6 at 00:51:16:08
Starting scene Segment_1_scn7 at 00:51:59:17
SeqEnd at 9F9C2C7C.
Bytes remaining in buffer = 0.
Bitrate - avg: 7620282, min: 2079507 (lba 1451155), max: 10649600 (lba 1412167).
Shortest GOP has 2 fields, longest GOP has 24 fields.
Fields: 156010, VOBU: 6270, Sectors: 1451221.
16:37:23 Begin multiplex VMG.
16:37:23 End multiplex.
Summary of Virtual Memory Management
VM base 02a20000, reserved 60000000, commited 00010000, free 5d68, disposable 0.
handle 1, size a298 (41600 data), owner 80000001, time 0, locks 1 0 0, lcnt 1.
Locked by DBinit.
handle 0, size 5d68 (23888 data), owner 0, time 0, locks 0 0 0, lcnt 0.
--MuxMan version 1.4.4
new project database size 400, base 2950018.
new pointer management list size 50.
new clipboard database size 20, base 6eed58.
17:10:43 Begin m2v survey of C:\Temp\1066\333\VideoFile.m2v.
Accepted audio C:\Temp\1066\3 часть ВО синхр.ac3
Accepted audio C:\Temp\1066\3 часть ДВО синхр.ac3
Accepted audio C:\Temp\1066\333\AudioFile_80.ac3
17:11:43 End survey of C:\Temp\1066\333\VideoFile.m2v.
17:12:03 Begin multiplex VTS01.
Title Segment List
Segment_1 non-seamless
Encoded stream 20 is script stream 1.
Encoded stream 21 is script stream 2.
Buffering audio track 1 file C:\Temp\1066\3 часть ВО синхр.ac3.
Buffering audio track 2 file C:\Temp\1066\3 часть ДВО синхр.ac3.
Buffering audio track 3 file C:\Temp\1066\333\AudioFile_80.ac3.
Maximum audio duration 145064 fields.
Multiplex delay set to 25257.
Positioned C:\Temp\1066\333\VideoFile.m2v to 00:00:00:00
Starting scene Segment_1_scn1 at 00:00:00:00
Starting scene Segment_1_scn2 at 00:18:26:04
Starting scene Segment_1_scn3 at 00:26:49:11
Starting scene Segment_1_scn4 at 00:36:22:02
Starting scene Segment_1_scn5 at 00:47:40:02
Starting scene Segment_1_scn6 at 00:48:21:17
SeqEnd at 926F3B14.
Bytes remaining in buffer = 0.
Bitrate - avg: 7525575, min: 1706666 (lba 1096477), max: 10308266 (lba 50198).
Shortest GOP has 2 fields, longest GOP has 24 fields.
Fields: 145110, VOBU: 5799, Sectors: 1333052.
17:16:01 Begin multiplex VMG.
17:16:01 End multiplex.
Summary of Virtual Memory Management
VM base 02950000, reserved 60000000, commited 00010000, free 5d68, disposable 0.
handle 1, size a298 (41600 data), owner 80000001, time 0, locks 1 0 0, lcnt 1.
Locked by DBinit.
handle 0, size 5d68 (23888 data), owner 0, time 0, locks 0 0 0, lcnt 0.

Скриншоты меню


-
-
-

Коврики и Блинчик

-
-
-
-
-
- -

_________________
Показать сообщения:    

Текущее время: Сегодня 03:51

Часовой пояс: GMT



Вы не можете начинать темы
Вы не можете отвечать на сообщения
Вы не можете редактировать свои сообщения
Вы не можете удалять свои сообщения
Вы не можете голосовать в опросах
Вы не можете прикреплять файлы к сообщениям
Вы не можете скачивать файлы