Важное объявление!
У Нас Все раздачи мультитрекерные, при нуле пиров в релизах, можете смело вставать на закачку!
 
Автор Сообщение

HUNTER

Стаж:
4 года 4 месяца
Сообщений:
56822

Репутация: 101

[+] [-]
Вне форума [Профиль] [ЛС]

101 далматинец / One Hundred And One Dalmatians
Страна: США
Жанр: мультфильм, приключения, семейный
Продолжительность: 01:19:00
Год выпуска: 1961
Перевод: Авторский (одноголосый закадровый) А. Михалёв
Русские субтитры: нет
Режиссёр: Клайд Джероними
Роли озвучивали: Род Тейлор, Дж. Пэт О’Мэлли, Бетти Лу Джерсон, Марта Вентуорф, Бен Райт, Кейт Бауэр, Дэвид Фрэнкхэм, Фредерик Уорлок, Лиза Дэвис, Том Конуэ.
Описание: Трогательная и невероятно интригующая история поиска и спасения щенят далматинских догов, которые были похищены у своих хозяев по приказу злобной фурии, Стервеллы Де Виль.
Алчная модница задумала сшить себе пятнистый меховой наряд из шкурок бедных малюток. Однако животные, объединившись, ухитряются проучить ее.
Доп. информация: Спасибо [url=profile.php?mode=viewprofile&u=760904]RoxMarty[/url] за предоставленный исходник для релиза!
СЭМПЛ
Качество: VHSRip
Формат: MPG
Видео: MPEG Video, 720x576, 25 fps, 7951 kbps
Аудио: AC3, 48,0 kHz, 2 ch, 384 kbps
Субтитры: отсутствуют

Подробные технические данные

ОбщееПолное имя : G:\101 Далматинец {VHS}.mpgФормат : MPEG-PSРазмер файла : 4,69 ГбайтПродолжительность : 1 ч. 19 м.Режим общего битрейта : ПеременныйОбщий поток : 8505 Кбит/сек
ВидеоИдентификатор : 224 (0xE0)Формат : MPEG VideoВерсия формата : Version 2Профиль формата : Main@MainПараметр BVOP формата : ДаПараметр матрицы формата : ВыборочнаяПараметр GOP формата : M=3, N=15Структура изображения : FrameПродолжительность : 1 ч. 19 м.Вид битрейта : ПеременныйБитрейт : 7951 Кбит/секМаксимальный битрейт : 8300 Кбит/секШирина : 720 пикселейВысота : 576 пикселейСоотношение сторон : 4:3Частота кадров : 25,000 кадров/секСтандарт вещания : PALЦветовое пространство : YUVСубдискретизация насыщенности : 4:2:0Битовая глубина : 8 битТип развёртки : ЧересстрочнаяПорядок развёртки : Верхнее поле первоеМетод сжатия : С потерямиБит/(Пиксели*Кадры) : 0.767Временной код первого кадра : 00:00:00:00Оригинал временного кода : Group of pictures headerGOP, открыто/закрыто : ОткрытоGOP, открыто/закрыто на первом кадре : ЗакрытоРазмер потока : 4,39 Гбайт (93%)
АудиоИдентификатор : 189 (0xBD)-128 (0x80)Формат : AC-3Формат/Информация : Audio Coding 3Расширение режима : CM (complete main)Параметр Endianness формата : BigРежим смешивания : DVD-VideoПродолжительность : 1 ч. 19 м.Вид битрейта : ПостоянныйБитрейт : 384 Кбит/секКаналы : 2 каналаРасположение каналов : Front: L RЧастота : 48,0 КГцЧастота кадров : 31,250 кадров/сек (1536 spf)Метод сжатия : С потерямиЗадержка видео : 8 мс.Размер потока : 217 Мбайт (5%)

Скриншоты


_________________
Показать сообщения:    

Текущее время: Сегодня 22:16

Часовой пояс: GMT



Вы не можете начинать темы
Вы не можете отвечать на сообщения
Вы не можете редактировать свои сообщения
Вы не можете удалять свои сообщения
Вы не можете голосовать в опросах
Вы не можете прикреплять файлы к сообщениям
Вы не можете скачивать файлы