Ивановский Торрент трекер
Яндекс.Погода
 

[Цитировать]
HUNTER

1001 сказка Багза Банни / Bugs Bunny's 3rd Movie: 1001 Rabbit Tales
Страна: США
Жанр: мультфильм, комедия, приключения, семейный, музыка
Продолжительность: 01:13:42
Год выпуска: 1982
Перевод 1: Профессиональный (многоголосый, закадровый) ТНТ
Перевод 2: Авторский (одноголосый закадровый) Андрей Дольский
Русские субтитры: нет
Режиссёр: Фриц Фрилинг, Чак Джонс, Роберт МакКимсон / Friz Freleng, Chuck Jones, Robert McKimson
Роли озвучивали: Мэл Бланк, Артур К. Брайан, Джун Форэй, Шепард Менкен, Ленни Уэйнриб, Билл Робертс
Описание: Все начинается с того, что кролик Багз поневоле становится придворным рассказчиком у капризного сына султана Сэма — принца Абадаба. Теперь, чтобы уберечь свой хвост от гнева Сэма, Багзу придется придумать кучу небылиц с участием таких знаменитых героев мультфильмов, как Даффи Дак, Порки Пиг, Сильвестра и Твити, ведьмы Хэйзел и других любимцев Looney Tunes!

Качество: WEB-DLRip [WEB-DL 1080p]
Формат: AVI
Видео: Xvid, 656x480 (1.37:1), 23.976 fps, XviD build 73 ~1102 kbps avg, 0.15 bit/pixel
Аудио №1: Mp3, 48 kHz, MPEG Layer 3, 2 ch, ~128.00 kbps avg ТНТ
Аудио №2: Mp3, 48 kHz, MPEG Layer 3, 2 ch, ~128.00 kbps avg Дольский
Субтитры: отсутствуют

Подробные технические данные

Полное имя : 1001 сказка Багза Банни.aviФормат : AVIФормат/Информация : Audio Video InterleaveРазмер файла : 724 МбайтПродолжительность : 1 ч. 13 м.Общий поток : 1373 Кбит/секПрограмма кодирования : VirtualDubMod 1.5.10.2 (build 2540/release)Библиотека кодирования : VirtualDubMod build 2540/release
ВидеоИдентификатор : 0Формат : MPEG-4 VisualПрофиль формата : Advanced Simple@L5Параметр BVOP формата : 2Параметр QPel формата : НетПараметр GMC формата : Без точки переходаПараметр матрицы формата : Default (H.263)Идентификатор кодека : XVIDИдентификатор кодека/Подсказка : XviDПродолжительность : 1 ч. 13 м.Битрейт : 1104 Кбит/секШирина : 656 пикселейВысота : 480 пикселейСоотношение сторон : 4:3Частота кадров : 23,976 кадра/секЦветовое пространство : YUVСубдискретизация насыщенности : 4:2:0Битовая глубина : 8 битТип развёртки : ПрогрессивнаяМетод сжатия : С потерямиБит/(Пиксели*Кадры) : 0.146Размер потока : 582 Мбайт (80%)Библиотека кодирования : XviD 73
Аудио #1Идентификатор : 1Формат : MPEG AudioВерсия формата : Version 1Профиль формата : Layer 3Режим : Joint stereoРасширение режима : MS StereoИдентификатор кодека : 55Идентификатор кодека/Подсказка : MP3Продолжительность : 1 ч. 13 м.Вид битрейта : ПостоянныйБитрейт : 128 Кбит/секКаналы : 2 каналаЧастота : 48,0 КГцМетод сжатия : С потерямиРазмер потока : 67,5 Мбайт (9%)Выравнивание : Соединение по промежуткамПродолжительность промежутка : 42 мс. (1,00 видеокадр)Время предзагрузки промежутка : 504 мс.Библиотека кодирования : LAME3.99rНастройки программы : -m j -V 4 -q 2 -lowpass 17 -b 128
Аудио #2Идентификатор : 2Формат : MPEG AudioВерсия формата : Version 1Профиль формата : Layer 3Режим : Joint stereoРасширение режима : MS StereoИдентификатор кодека : 55Идентификатор кодека/Подсказка : MP3Продолжительность : 1 ч. 13 м.Вид битрейта : ПостоянныйБитрейт : 128 Кбит/секКаналы : 2 каналаЧастота : 48,0 КГцМетод сжатия : С потерямиРазмер потока : 67,4 Мбайт (9%)Выравнивание : Соединение по промежуткамПродолжительность промежутка : 42 мс. (1,00 видеокадр)Время предзагрузки промежутка : 504 мс.Библиотека кодирования : LAME3.99rНастройки программы : -m j -V 4 -q 2 -lowpass 17 -b 128

Скриншоты

0 человек читают эту тему: 0 пользователей, 0 скрытых пользователей, 0 гостей

Показать сообщения:    

Текущее время: 24-Авг 05:34

Часовой пояс: UTC - 1


Вы не можете начинать темы
Вы не можете отвечать на сообщения
Вы не можете редактировать свои сообщения
Вы не можете удалять свои сообщения
Вы не можете голосовать в опросах
Вы не можете прикреплять файлы к сообщениям
Вы не можете скачивать файлы

!ВНИМАНИЕ!
Сайт не предоставляет электронные версии произведений, а занимается лишь коллекционированием и каталогизацией ссылок, присылаемых и публикуемых на форуме нашими читателями. Если вы являетесь правообладателем какого-либо представленного материала и не желаете, чтобы ссылка на него находилась в нашем каталоге, свяжитесь с нами, и мы незамедлительно удалим ее. Файлы для обмена на трекере предоставлены пользователями сайта, и администрация не несет ответственности за их содержание. Просьба не заливать файлы, защищенные авторскими правами, а также файлы нелегального содержания!