Важное объявление!
У Нас Все раздачи мультитрекерные, при нуле пиров в релизах, можете смело вставать на закачку!
Статистика раздачи
Размер:     |    Зарегистрирован:     |    Скачан:     |   
Нет
 
     
 
 
Автор Сообщение

HUNTER

Стаж:
5 лет
Сообщений:
67947

Репутация: 101

[+] [-]
Вне форума [Профиль] [ЛС]

1001 сказка Багза Банни / Bugs Bunny's 3rd Movie: 1001 Rabbit Tales
Страна: США
Жанр: мультфильм, комедия, приключения, семейный, музыка
Продолжительность: 01:13:42
Год выпуска: 1982
Перевод 1: Профессиональный (многоголосый, закадровый) ТНТ
Перевод 2: Авторский (одноголосый закадровый) Андрей Дольский
Русские субтитры: английские SRT
Оригинальная дорожка: Английский
Режиссёр: Фриц Фрилинг, Чак Джонс, Роберт МакКимсон / Friz Freleng, Chuck Jones, Robert McKimson
Роли озвучивали: Мэл Бланк, Артур К. Брайан, Джун Форэй, Шепард Менкен, Ленни Уэйнриб, Билл Робертс
Описание: Все начинается с того, что кролик Багз поневоле становится придворным рассказчиком у капризного сына султана Сэма — принца Абадаба. Теперь, чтобы уберечь свой хвост от гнева Сэма, Багзу придется придумать кучу небылиц с участием таких знаменитых героев мультфильмов, как Даффи Дак, Порки Пиг, Сильвестра и Твити, ведьмы Хэйзел и других любимцев Looney Tunes!

Качество: WEB-DL 1080p
Формат: MKV
Видео: H264, 1468x1074 (1.37:1), 23.976 fps, ~4776 kbps avg, 0.126 bit/pixel
Аудио №1: AC3, 48 kHz, AC3 Dolby Digital, 2 ch, ~192 kbps ТНТ
Аудио №2: AC3, 48 kHz, AC3 Dolby Digital, 2 ch, ~192 kbps Дольский
Аудио №3: AC3, 48 kHz, AC3 Dolby Digital, 2 ch, ~192 kbps Оригинал

Подробные технические данные

Полное имя : 1001 сказка Багза Банни.mkvФормат : MatroskaВерсия формата : Version 4 / Version 2Размер файла : 2,81 ГбайтПродолжительность : 1 ч. 13 м.Общий поток : 5460 Кбит/секДата кодирования : UTC 2014-08-18 17:40:17Программа кодирования : mkvmerge v7.1.0 ('Good Love') 64bit built on Jul 27 2014 13:06:55Библиотека кодирования : libebml v1.3.0 + libmatroska v1.4.1DURATION : 01:13:43.008000000NUMBER_OF_FRAMES : 138219NUMBER_OF_BYTES : 106152192_STATISTICS_WRITING_APP : mkvmerge v7.1.0 ('Good Love') 64bit built on Jul 27 2014 13:06:55_STATISTICS_WRITING_DATE_UTC : 2014-08-18 17:40:17_STATISTICS_TAGS : BPS DURATION NUMBER_OF_FRAMES NUMBER_OF_BYTES
ВидеоИдентификатор : 1Формат : AVCФормат/Информация : Advanced Video CodecПрофиль формата : High@L4.0Параметр CABAC формата : ДаПараметр ReFrames формата : 5 кадровИдентификатор кодека : V_MPEG4/ISO/AVCПродолжительность : 1 ч. 13 м.Битрейт : 4776 Кбит/секШирина : 1468 пикселейВысота : 1074 пикселяСоотношение сторон : 4:3Режим частоты кадров : ПостоянныйЧастота кадров : 23,976 кадра/секЦветовое пространство : YUVСубдискретизация насыщенности : 4:2:0Битовая глубина : 8 битТип развёртки : ПрогрессивнаяБит/(Пиксели*Кадры) : 0.126Размер потока : 2,46 Гбайт (87%)Язык : EnglishDefault : ДаForced : НетОсновные цвета : BT.709Характеристики трансфера : BT.709Коэффициенты матрицы : BT.709
Аудио #1Идентификатор : 2Формат : AC-3Формат/Информация : Audio Coding 3Расширение режима : CM (complete main)Параметр Endianness формата : BigИдентификатор кодека : A_AC3Продолжительность : 1 ч. 13 м.Вид битрейта : ПостоянныйБитрейт : 192 Кбит/секКаналы : 2 каналаРасположение каналов : Front: L RЧастота : 48,0 КГцБитовая глубина : 16 битМетод сжатия : С потерямиРазмер потока : 101 Мбайт (4%)Заголовок : THTЯзык : RussianDefault : ДаForced : Нет
Аудио #2Идентификатор : 3Формат : AC-3Формат/Информация : Audio Coding 3Расширение режима : CM (complete main)Параметр Endianness формата : BigИдентификатор кодека : A_AC3Продолжительность : 1 ч. 13 м.Вид битрейта : ПостоянныйБитрейт : 192 Кбит/секКаналы : 2 каналаРасположение каналов : Front: L RЧастота : 48,0 КГцБитовая глубина : 16 битМетод сжатия : С потерямиРазмер потока : 101 Мбайт (4%)Заголовок : DolskijЯзык : RussianDefault : НетForced : Нет
Аудио #3Идентификатор : 4Формат : AC-3Формат/Информация : Audio Coding 3Расширение режима : CM (complete main)Параметр Endianness формата : BigИдентификатор кодека : A_AC3Продолжительность : 1 ч. 13 м.Вид битрейта : ПостоянныйБитрейт : 192 Кбит/секКаналы : 2 каналаРасположение каналов : Front: L RЧастота : 48,0 КГцБитовая глубина : 16 битМетод сжатия : С потерямиРазмер потока : 101 Мбайт (4%)Заголовок : OriginalЯзык : EnglishDefault : НетForced : Нет
ТекстИдентификатор : 5Формат : UTF-8Идентификатор кодека : S_TEXT/UTF8Идентификатор кодека/Информация : UTF-8 Plain TextЯзык : EnglishDefault : НетForced : Нет

Скриншоты


_________________
Показать сообщения:    

Текущее время: Сегодня 14:52

Часовой пояс: GMT



Вы не можете начинать темы
Вы не можете отвечать на сообщения
Вы не можете редактировать свои сообщения
Вы не можете удалять свои сообщения
Вы не можете голосовать в опросах
Вы не можете прикреплять файлы к сообщениям
Вы не можете скачивать файлы