Ивановский Торрент трекер
Яндекс.Погода
 

[Цитировать]
HUNTER

1000 и одна ночь / Pohadky tisice a jedne noci
Страна: Чехословакия
Жанр: мультфильм, сказка, приключения
Продолжительность: 01:28:20
Год выпуска: 1974
Перевод: Профессиональный (дублированный)
Русские субтитры: нет

Режиссёр: Карел Земан / Karel Zeman
Описание: Мультфильм "Тысяча и одна ночь" относится к позднему периоду творчества мастера и сделан с использованием плоских марионеток. Традиционный сюжет знаменитой восточной сказки про Синдбада-Морехода представлен в безупречном графическом исполнении, живо и образно. Лучшая альтернатива американской анимационной традиции - добрый, спокойный фильм, воспитывающий у юных зрителей чувство вкуса и стиля.
Качество: DVDRip
Формат: AVI
Видео: 624x480 (1.30:1), 25 fps, XviD build 73 ~2149 kbps avg, 0.29 bit/pixel
Аудио: 48 kHz, AC3 Dolby Digital, 2/0 (L,R) ch, ~192 kbps
Субтитры: отсутствуют

Подробные технические данные

ОбщееПолное имя : H:\Pohadky.tisice.a.jedne.noci.1974.dvdrip_[1.46]_[teko].aviФормат : AVIФормат/Информация : Audio Video InterleaveРазмер файла : 1,45 ГбайтПродолжительность : 1 ч. 28 м.Общий поток : 2351 Кбит/секПрограмма кодирования : VirtualDubMod 1.5.10.3 | www.virtualdub-fr.org || (build 2550/release)Библиотека кодирования : VirtualDubMod build 2550/release
ВидеоИдентификатор : 0Формат : MPEG-4 VisualПрофиль формата : Advanced Simple@L5Параметр BVOP формата : 1Параметр QPel формата : НетПараметр GMC формата : Без точки переходаПараметр матрицы формата : ВыборочнаяИдентификатор кодека : XVIDИдентификатор кодека/Подсказка : XviDПродолжительность : 1 ч. 28 м.Битрейт : 2149 Кбит/секШирина : 624 пикселяВысота : 480 пикселейСоотношение сторон : 4:3Частота кадров : 25,000 кадров/секЦветовое пространство : YUVСубдискретизация насыщенности : 4:2:0Битовая глубина : 8 битТип развёртки : ПрогрессивнаяМетод сжатия : С потерямиБит/(Пиксели*Кадры) : 0.287Размер потока : 1,33 Гбайт (91%)Библиотека кодирования : XviD 73
АудиоИдентификатор : 1Формат : AC-3Формат/Информация : Audio Coding 3Расширение режима : CM (complete main)Параметр Endianness формата : BigИдентификатор кодека : 2000Продолжительность : 1 ч. 28 м.Вид битрейта : ПостоянныйБитрейт : 192 Кбит/секКаналы : 2 каналаРасположение каналов : Front: L RЧастота : 48,0 КГцБитовая глубина : 16 битМетод сжатия : С потерямиРазмер потока : 121 Мбайт (8%)Выравнивание : Разделение по промежуткамПродолжительность промежутка : 40 мс. (1,00 видеокадр)Время предзагрузки промежутка : 500 мс.
Релиз группы:
--
Показать сообщения:    

Текущее время: 20-Окт 04:20

Часовой пояс: UTC - 1


Вы не можете начинать темы
Вы не можете отвечать на сообщения
Вы не можете редактировать свои сообщения
Вы не можете удалять свои сообщения
Вы не можете голосовать в опросах
Вы не можете прикреплять файлы к сообщениям
Вы не можете скачивать файлы

!ВНИМАНИЕ!
Сайт не предоставляет электронные версии произведений, а занимается лишь коллекционированием и каталогизацией ссылок, присылаемых и публикуемых на форуме нашими читателями. Если вы являетесь правообладателем какого-либо представленного материала и не желаете, чтобы ссылка на него находилась в нашем каталоге, свяжитесь с нами, и мы незамедлительно удалим ее. Файлы для обмена на трекере предоставлены пользователями сайта, и администрация не несет ответственности за их содержание. Просьба не заливать файлы, защищенные авторскими правами, а также файлы нелегального содержания!