Важное объявление!
У Нас Все раздачи мультитрекерные, при нуле пиров в релизах, можете смело вставать на закачку!
 
Автор Сообщение

HUNTER

Стаж:
4 года 7 месяцев
Сообщений:
61582

Репутация: 101

[+] [-]
Вне форума [Профиль] [ЛС]

-007: Координаты «Скайфолл» / Skyfall--
Год выпуска: 2012 г.
Производство: Великобритания, США
Жанр: боевик, триллер, криминал, приключения
Продолжительность: 02:23:10
Перевод: Профессиональный (полное дублирование)
Оригинальный аудиопоток: Aнглийский
Субтитры: Русские, английские
Режиссер: Сэм Мендес / Sam Mendes
В ролях: Дэниэл Крэйг, Хавьер Бардем, Джуди Денч, Рэйф Файнс, Бен Уишоу, Наоми Харрис, Альберт Финни, Беренис Марло, Хелен МакКрори, Тония Сотирополо
Описание: Лояльность Бонда своей начальнице М под угрозой со стороны ее прошлого, которое внезапно даст о себе знать. MI6 подвергается нападению, и агент 007 должен ликвидировать угрозу, несмотря на цену, которую придется заплатить.

Доп. информация

-- --
Качество видео: HDRip-AVC
Контейнер: MKV
Видео кодек: H.264
Аудио кодек: AC3
Видео: 1024x432 (2.35), 23.976 fps, 2 015 Kbps (0.186 bit/pixel)
Аудио: 48.0 KHz, 6 ch, 448 Kbps, Rus
Аудио: 48.0 KHz, 6 ch, 448 Kbps, Eng

Media Info

General
Unique ID : 208325549272329076298949126304599106259 (0x9CBA0A9612FB1D378A99E35F0383E2D3)
Complete name : H:\Skyfall.2012.x264.HDRip-AVC.JRG.mkv
Format : Matroska
Format version : Version 2
File size : 2.91 GiB
Duration : 2h 23mn
Overall bit rate : 2 911 Kbps
Movie name : Skyfall (2012) - The Jolly Roger by Pirat.Ca [zyyx]
Encoded date : UTC 2013-02-02 07:42:06
Writing application : mkvmerge v4.9.1 ('Ich will') сборка от Aug 10 2011 09:31:20
Writing library : libebml v1.2.1 + libmatroska v1.2.0
Video
ID : 1
Format : AVC
Format/Info : Advanced Video Codec
Format profile : [url=mailto:High@L4.1]High@L4.1[/url]
Format settings, CABAC : Yes
Format settings, ReFrames : 14 frames
Codec ID : V_MPEG4/ISO/AVC
Duration : 2h 23mn
Bit rate : 2 015 Kbps
Width : 1 024 pixels
Height : 432 pixels
Display aspect ratio : 2.40:1
Frame rate : 23.976 fps
Color space : YUV
Chroma subsampling : 4:2:0
Bit depth : 8 bits
Scan type : Progressive
Bits/(Pixel*Frame) : 0.190
Stream size : 1.96 GiB (67%)
Title : JRG
Writing library : x264 core 125 r2200 999b753
Encoding settings : cabac=1 / ref=14 / deblock=1:-2:-2 / analyse=0x3:0x133 / me=umh / subme=11 / psy=1 / psy_rd=1.00:0.10 / mixed_ref=1 / me_range=48 / chroma_me=1 / trellis=2 / 8x8dct=1 / cqm=0 / deadzone=21,11 / fast_pskip=0 / chroma_qp_offset=-3 / threads=16 / lookahead_threads=6 / sliced_threads=0 / nr=0 / decimate=1 / interlaced=0 / bluray_compat=0 / constrained_intra=0 / bframes=12 / b_pyramid=2 / b_adapt=2 / b_bias=0 / direct=3 / weightb=1 / open_gop=0 / weightp=2 / keyint=250 / keyint_min=23 / scenecut=40 / intra_refresh=0 / rc_lookahead=50 / rc=2pass / mbtree=1 / bitrate=2015 / ratetol=1.0 / qcomp=0.60 / qpmin=0 / qpmax=69 / qpstep=4 / cplxblur=20.0 / qblur=0.5 / ip_ratio=1.40 / aq=1:1.00
Language : English
Default : Yes
Forced : No
Audio #1
ID : 2
Format : AC-3
Format/Info : Audio Coding 3
Mode extension : CM (complete main)
Format settings, Endianness : Big
Codec ID : A_AC3
Duration : 2h 23mn
Bit rate mode : Constant
Bit rate : 448 Kbps
Channel(s) : 6 channels
Channel positions : Front: L C R, Side: L R, LFE
Sampling rate : 48.0 KHz
Bit depth : 16 bits
Compression mode : Lossy
Stream size : 459 MiB (15%)
Language : Russian
Default : Yes
Forced : Yes
Audio #2
ID : 3
Format : AC-3
Format/Info : Audio Coding 3
Mode extension : CM (complete main)
Format settings, Endianness : Big
Codec ID : A_AC3
Duration : 2h 23mn
Bit rate mode : Constant
Bit rate : 448 Kbps
Channel(s) : 6 channels
Channel positions : Front: L C R, Side: L R, LFE
Sampling rate : 48.0 KHz
Bit depth : 16 bits
Compression mode : Lossy
Stream size : 459 MiB (15%)
Language : English
Default : No
Forced : No
Text #1
ID : 4
Format : UTF-8
Codec ID : S_TEXT/UTF8
Codec ID/Info : UTF-8 Plain Text
Language : Russian
Default : No
Forced : No
Text #2
ID : 5
Format : UTF-8
Codec ID : S_TEXT/UTF8
Codec ID/Info : UTF-8 Plain Text
Language : Russian
Default : No
Forced : No
Text #3
ID : 6
Format : UTF-8
Codec ID : S_TEXT/UTF8
Codec ID/Info : UTF-8 Plain Text
Language : English
Default : No
Forced : No
Menu
00:00:00.000 : en:00:00:00.000
00:04:28.477 : en:00:04:28.477
00:07:32.452 : en:00:07:32.452
00:12:47.392 : en:00:12:47.392
00:16:47.465 : en:00:16:47.465
00:21:37.338 : en:00:21:37.338
00:25:00.290 : en:00:25:00.290
00:29:25.222 : en:00:29:25.222
00:35:06.146 : en:00:35:06.146
00:38:27.764 : en:00:38:27.764
00:41:24.440 : en:00:41:24.440
00:46:22.905 : en:00:46:22.905
00:50:48.629 : en:00:50:48.629
00:54:53.290 : en:00:54:53.290
00:59:38.742 : en:00:59:38.742
01:05:14.244 : en:01:05:14.244
01:10:16.671 : en:01:10:16.671
01:17:09.750 : en:01:17:09.750
01:20:55.059 : en:01:20:55.059
01:26:10.374 : en:01:26:10.374
01:31:49.754 : en:01:31:49.754
01:37:04.527 : en:01:37:04.527
01:40:49.085 : en:01:40:49.085
01:43:45.970 : en:01:43:45.970
01:45:54.723 : en:01:45:54.723
01:52:10.599 : en:01:52:10.599
01:54:45.796 : en:01:54:45.796
01:58:13.044 : en:01:58:13.044
02:02:49.112 : en:02:02:49.112
02:09:38.646 : en:02:09:38.646
02:14:49.623 : en:02:14:49.623
02:17:46.425 : en:02:17:46.425

Скриншоты

--

_________________
Показать сообщения:    

Текущее время: Сегодня 02:21

Часовой пояс: GMT



Вы не можете начинать темы
Вы не можете отвечать на сообщения
Вы не можете редактировать свои сообщения
Вы не можете удалять свои сообщения
Вы не можете голосовать в опросах
Вы не можете прикреплять файлы к сообщениям
Вы не можете скачивать файлы
Наши партнеры: интернет магазин Ивановского трикотажа textilla.ru