0лли i cokрoвищa пирaтoв / Divе Оllу Divе аnd thе Рirаtе Тrеаsurе (Бo6 Дyceттe, Гaри Xeрcт, Бo6 Бakcтeр / Воb Dоuсееttе, Gаrу Нurst, Воb Вахtеr) [2014, США, мультфильм, семейный, детский, DVD5] R5 Dub + Original Eng :: Ивановский Торрент трекер
Важное объявление!
У Нас Все раздачи мультитрекерные, при нуле пиров в релизах, можете смело вставать на закачку!
 
Автор Сообщение

HUNTER

Стаж:
4 года 11 месяцев
Сообщений:
66045

Репутация: 101

[+] [-]
Вне форума [Профиль] [ЛС]

-Олли и сокровища пиратов / Dive Olly Dive and the Pirate Treasure
-Страна: США
Студия: MoonScoop
Жанр: мультфильм, семейный, детский
Год выпуска: 2014
Мировая премьера: 1 мая 2014, «3D
Российская премьера: 1 мая 2014, «АКМ» 3D
Дата выхода DVD: 3 июня 2014, «Активижен»
Дата выхода Blu-Ray: 3 июня 2014, «Активижен»
Продолжительность: 01:16:43
Перевод: Профессиональный (дублированный) [Лицензия]
Cубтитры: нет
Оригинальная аудиодорожка: английский-Режиссер: Боб Дусетте, Гари Херст, Боб Бакстер / Bob Doucette, Gary Hurst, Bob Baxter-Роли озвучивали: Шон-Райан Петерсен...-Роли дублировали: Айза Долматова, Алёна Водонаева, Ксения Бородина...-Описание: К подводным лодками Олли и Бэт присоединяется их друг Бобси, который совершенно убежден, что является потомком «Пи-Ратов» — давних искателей легендарного клада.
Их путешествие за сокровищем наполнено чудесами, приключениями и, конечно, юмором, потому что по пятам за ним следует банда Красных Морских Коньков под предводительством интеллигентной, но крайне опасной Акулы… Но даже это не смогло остановить наших героев! Олли, Бэт и Бобси переживут сильный шторм, преодолеют все препятствия и в конце концов смогут найти клад!
Но основное, что наши охотники за сокровищами поймут к концу этой гонки, что самое главное — это, конечно, семья и друзья!
-Бонусы: нет- -Релиз группы: -Качество: DVD5 R5
Формат: DVD-Video
Видео кодек: MPEG2
Аудио кодек: AC3
Видео: PAL 16:9 (720x576(0.474)) MPEG Video, 25,000 кадр/сек, 4919 Кбит/сек
Аудио #1: Russian (Dolby AC3, 6 ch) 448 Кбит/сек, 48,0 КГц
Аудио #2: English (Dolby AC3, 6 ch) 448 Кбит/сек, 48,0 КГц--

DVDInfo
Title: Olli.i.sokrovishha.piratov.2014.DVD5
Size: 3.27 Gb ( 3 430 554,00 KBytes ) - DVD-5
Enabled regions: 1, 2, 3, 4, 5, 6, 7, 8
VTS_01 :
Play Length: 01:16:43
Video: PAL 16:9 (720x576) VBR, Auto Letterboxed
Audio:
Russian (Dolby AC3, 6 ch)
English (Dolby AC3, 6 ch)
VTS_02 :
Play Length: 00:00:10+00:01:44+00:00:06+00:00:04+00:00:06
Video: PAL 16:9 (720x576) VBR, Auto Letterboxed
Audio:
Russian (Dolby AC3, 2 ch)
* Menus Information *
VIDEO_TS Menu
Video:
PAL 4:3 (720x576) VBR
Letterboxed
English Language Unit :
Title Menu
VTS_01 Menu
Video:
PAL 16:9 (720x576) VBR
Auto Letterboxed
Audio:
Not specified (Dolby AC3, 2 ch)
English Language Unit :
Root Menu
Audio Menu
Chapter (PTT) Menu
VTS_02 Menu
Video:
NTSC 4:3 (720x480) VBR
Auto Pan&Scan, Auto Letterboxed
English Language Unit :
Root Menu
MediaInfo
Общее
Полное имя : D:\Новинки 2014\Olli.i.sokrovishha.piratov.2014.DVD5\VIDEO_TS\VTS_01_2.VOB
Формат : MPEG-PS
Размер файла : 1024 Мбайт
Продолжительность : 24 м.
Режим общего битрейта : Переменный
Общий поток : 5934 Кбит/сек
Видео
Идентификатор : 224 (0xE0)
Формат : MPEG Video
Версия формата : Version 2
Профиль формата : Main@Main
Параметр BVOP формата : Да
Параметр матрицы формата : Выборочная
Параметр GOP формата : M=3, N=15
Продолжительность : 24 м.
Вид битрейта : Переменный
Битрейт : 4919 Кбит/сек
Максимальный битрейт : 8000 Кбит/сек
Ширина : 720 пикселей
Высота : 576 пикселей
Соотношение сторон : 16:9
Частота кадров : 25,000 кадров/сек
Стандарт вещания : PAL
Цветовое пространство : YUV
Субдискретизация насыщенности : 4:2:0
Битовая глубина : 8 бит
Тип развёртки : Прогрессивная
Метод сжатия : С потерями
Бит/(Пиксели*Кадры) : 0.474
Временной код первого кадра : 00:24:14:10
Оригинал временного кода : Group of pictures header
Размер потока : 849 Мбайт (83%)
Аудио #1
Идентификатор : 189 (0xBD)-128 (0x80)
Формат : AC-3
Формат/Информация : Audio Coding 3
Расширение режима : CM (complete main)
Параметр Endianness формата : Big
Режим смешивания : DVD-Video
Продолжительность : 24 м.
Вид битрейта : Постоянный
Битрейт : 448 Кбит/сек
Каналы : 6 каналов
Расположение каналов : Front: L C R, Side: L R, LFE
Частота : 48,0 КГц
Битовая глубина : 16 бит
Метод сжатия : С потерями
Задержка видео : -592 мс.
Размер потока : 77,3 Мбайт (8%)
Аудио #2
Идентификатор : 189 (0xBD)-129 (0x81)
Формат : AC-3
Формат/Информация : Audio Coding 3
Расширение режима : CM (complete main)
Параметр Endianness формата : Big
Режим смешивания : DVD-Video
Продолжительность : 24 м.
Вид битрейта : Постоянный
Битрейт : 448 Кбит/сек
Каналы : 6 каналов
Расположение каналов : Front: L C R, Side: L R, LFE
Частота : 48,0 КГц
Битовая глубина : 16 бит
Метод сжатия : С потерями
Задержка видео : -656 мс.
Размер потока : 77,3 Мбайт (8%)
Скриншоты менюСкриншоты мультфильма
-
-Раздача от группы:

_________________
Показать сообщения:    

Текущее время: Сегодня 12:24

Часовой пояс: GMT



Вы не можете начинать темы
Вы не можете отвечать на сообщения
Вы не можете редактировать свои сообщения
Вы не можете удалять свои сообщения
Вы не можете голосовать в опросах
Вы не можете прикреплять файлы к сообщениям
Вы не можете скачивать файлы