Важное объявление!
У Нас Все раздачи мультитрекерные, при нуле пиров в релизах, можете смело вставать на закачку!
Статистика раздачи
Размер:     |    Зарегистрирован:     |    Скачан:     |   
Нет
 
     
 
 
Автор Сообщение

HUNTER

Стаж:
5 лет 1 месяц
Сообщений:
68449

Репутация: 101

[+] [-]
Вне форума [Профиль] [ЛС]

Я - беглый каторжник /Я - беглец банды / I Am a Fugitive from a Chain Gang
Страна: США
Студия: Warner Bros. Pictures
Жанр: фильм-нуар, драма, криминал
Год выпуска: 1932
Продолжительность: 01:32:37
Перевод: Профессиональный (многоголосый закадровый)
Cубтитры: английские
Оригинальная аудиодорожка: английский
Режиссер: Мервин ЛеРой /Mervyn LeRoy
В ролях: Пол Муни, Гленда Фаррелл, Хелен Винсон, Ноэль Френсис, Престон Фостер, Аллен Дженкинс, Бертон Черчилль, Эдвард Эллис, Дэвид Ландау, Хейл Хэмилтон
Описание: Ветеран Джеймс Аллен отказывается вернуться на старую фабрику и постепенно деградирует. Случайно он оказывается вовлеченным в ограбление и попадает на каторгу. Однако ему удается оттуда бежать. Он приезжает в Чикаго, где добивается успеха в бизнесе. Но вот в личной жизни у него намечаются серьезные проблемы...

Sample
Тип релиза: WEB-DL 720p
Контейнер: MKV
Видео: MPEG4 AVC Video, H264, 4:3, 984x720, 23.976 fps, 3987 kbps
Аудио: Russian (AC3, 2 ch, 192 kbps, 16 bits, 48.0 KHz) - MVO
Аудио 2: English (AC3, 2 ch, 192 kbps, 16 bits, 48.0 KHz) - оригинал
Формат субтитров: softsub (SRT)
MediaInfo
General
Unique ID : 216155404285399561840687299818017785989 (0xA29E043E49B4272289AF080C56E40885)
Complete name : E:\1\I.Am.a.Fugitive.from.a.Chain.Gang.1932.720p.WEB-DL.H264-ViGi [PublicHD]\I.Am.a.Fugitive.from.a.Chain.Gang.1932.720p.WEB-DL.mkv
Format : Matroska
Format version : Version 4 / Version 2
File size : 2.89 GiB
Duration : 1h 32mn
Overall bit rate : 4 459 Kbps
Encoded date : UTC 2014-05-28 10:44:00
Writing application : mkvmerge v6.1.0 ('Old Devil') built on Mar 2 2013 14:32:37
Writing library : libebml v1.3.0 + libmatroska v1.4.0
Video
ID : 1
Format : AVC
Format/Info : Advanced Video Codec
Format profile : High@L3.1
Format settings, CABAC : No
Format settings, ReFrames : 2 frames
Codec ID : V_MPEG4/ISO/AVC
Duration : 1h 32mn
Bit rate : 3 987 Kbps
Width : 984 pixels
Height : 720 pixels
Display aspect ratio : 4:3
Frame rate mode : Constant
Frame rate : 23.976 fps
Color space : YUV
Chroma subsampling : 4:2:0
Bit depth : 8 bits
Scan type : Progressive
Bits/(Pixel*Frame) : 0.235
Stream size : 2.58 GiB (89%)
Language : English
Default : Yes
Forced : No
Color primaries : BT.709
Transfer characteristics : BT.709
Matrix coefficients : BT.709
Audio #1
ID : 2
Format : AC-3
Format/Info : Audio Coding 3
Mode extension : CM (complete main)
Format settings, Endianness : Big
Codec ID : A_AC3
Duration : 1h 32mn
Bit rate mode : Constant
Bit rate : 192 Kbps
Channel count : 2 channels
Channel positions : Front: L R
Sampling rate : 48.0 KHz
Bit depth : 16 bits
Compression mode : Lossy
Stream size : 127 MiB (4%)
Language : Russian
Default : Yes
Forced : No
Audio #2
ID : 3
Format : AC-3
Format/Info : Audio Coding 3
Mode extension : CM (complete main)
Format settings, Endianness : Big
Codec ID : A_AC3
Duration : 1h 32mn
Bit rate mode : Constant
Bit rate : 192 Kbps
Channel count : 2 channels
Channel positions : Front: L R
Sampling rate : 48.0 KHz
Bit depth : 16 bits
Compression mode : Lossy
Stream size : 127 MiB (4%)
Language : English
Default : No
Forced : No
Text
ID : 4
Format : UTF-8
Codec ID : S_TEXT/UTF8
Codec ID/Info : UTF-8 Plain Text
Language : English
Default : No
Forced : No
Menu
00:00:00.000 : en:Credits
00:01:16.000 : en:Homecoming
00:05:11.000 : en:Job With A Window
00:08:15.000 : en:Hard Times
00:13:27.000 : en:Diner Stickup
00:16:57.000 : en:Chain Gang
00:20:32.000 : en:Breakfast
00:22:44.000 : en:The Quarry
00:27:39.000 : en:The Strap
00:32:02.000 : en:Ways To Get Out
00:34:57.000 : en:Foot And Hammer
00:38:26.000 : en:Escape
00:41:28.000 : en:Underwater
00:43:52.000 : en:Plenty Close Enough
00:46:56.000 : en:Barney And Linda
00:50:59.000 : en:Headed North
00:53:52.000 : en:Chicago...and Marie
00:58:01.000 : en:Reason Not To Tell
01:00:28.000 : en:Straying Spouse
01:03:13.000 : en:Helen
01:05:38.000 : en:Exposure
01:09:19.000 : en:Promise Of Pardon
01:13:33.000 : en:The Last Word
01:17:13.000 : en:Pardon Hearing
01:20:48.000 : en:Their Revenge
01:24:40.000 : en:Second Escape
01:30:16.000 : en:"I Steal"
Скриншоты

_________________
Показать сообщения:    

Текущее время: Сегодня 01:01

Часовой пояс: GMT



Вы не можете начинать темы
Вы не можете отвечать на сообщения
Вы не можете редактировать свои сообщения
Вы не можете удалять свои сообщения
Вы не можете голосовать в опросах
Вы не можете прикреплять файлы к сообщениям
Вы не можете скачивать файлы