Важное объявление!
У Нас Все раздачи мультитрекерные, при нуле пиров в релизах, можете смело вставать на закачку!
 
Автор Сообщение

HUNTER

Стаж:
4 года 6 месяцев
Сообщений:
61006

Репутация: 101

[+] [-]
Вне форума [Профиль] [ЛС]

Я, Франкенштейн / I, Frankenstein
Страна: США, Австралия
Студия: Hopscotch Features, Lakeshore Entertainment, Sidney Kimmel Entertainment
Жанр: фэнтези, боевик, приключения
Год выпуска: 2014
Продолжительность: 01:33:10
Перевод: Профессиональный (дублированный) Лицензия
Cубтитры: нет
Оригинальная аудиодорожка: нет
Режиссер: Стюарт Битти / Stuart Beattie
В ролях: Аарон Экхарт, Ивонн Страховски, Миранда Отто, Билл Найи, Джай Кортни, Сократис Отто, Аден Янг, Кэйтлин Стэйси, Махеш Джаду, Стив Музакис
Описание: Он — монстр. Он — двухсотлетний плод безумной фантазии своего создателя. Он — легенда. Мир, в котором он живет, населен древними горгульями и бессмертными демонами, которые сражаются за обладание человечеством. Величественные соборы скрывают огромные арсеналы, за дверьми научных лабораторий проводятся эксперименты по воскрешению мертвых. Война двух кланов могущественных существ достигает своего пика. И только он, Адам, монстр Франкенштейна, в силах ее остановить.

Сэмпл: http://multi-up.com/955656
Релиз от:
Автор рипа: Lucique!
Тип релиза: BDRip 720p
Контейнер: MKV
Видео: x264, 1280x536, 2.40:1, ~4500 kbps, 23,976 fps, 2 pass
Аудио: 48 kHz, DTS, 3/2 (L,C,R,l,r) + LFE ch, ~1536.00 kbps avg |Дубляж|

MediaInfo

Format : Matroska
Format version : Version 2
File size : 3.90 GiB
Duration : 1h 33mn
Overall bit rate : 6 005 Kbps
Movie name : Lucique [BLUEBIRD]
Encoded date : UTC 2014-03-01 20:26:04
Writing application : mkvmerge v5.5.0 ('Healer') built on Apr 24 2012 23:47:03
Writing library : libebml v1.2.3 + libmatroska v1.3.0
Video #1
ID : 1
Format : AVC
Format/Info : Advanced Video Codec
Format profile : High@L4.1
Format settings, CABAC : Yes
Format settings, ReFrames : 11 frames
Codec ID : V_MPEG4/ISO/AVC
Duration : 1h 33mn
Bit rate : 4 500 Kbps
Width : 1 280 pixels
Height : 536 pixels
Display aspect ratio : 2.40:1
Frame rate : 23.976 fps
Color space : YUV
Chroma subsampling : 4:2:0
Bit depth : 8 bits
Scan type : Progressive
Bits/(Pixel*Frame) : 0.274
Stream size : 2.84 GiB (73%)
Writing library : x264 core 124 r2197 69a0443
Encoding settings : cabac=1 / ref=11 / deblock=1:-2:-3 / analyse=0x3:0x113 / me=umh / subme=11 / psy=1 / psy_rd=1.00:0.00 / mixed_ref=1 / me_range=32 / chroma_me=1 / trellis=2 / 8x8dct=1 / cqm=0 / deadzone=21,11 / fast_pskip=0 / chroma_qp_offset=-2 / threads=18 / sliced_threads=0 / nr=0 / decimate=1 / interlaced=0 / bluray_compat=0 / constrained_intra=0 / bframes=9 / b_pyramid=2 / b_adapt=2 / b_bias=0 / direct=3 / weightb=1 / open_gop=0 / weightp=2 / keyint=240 / keyint_min=24 / scenecut=40 / intra_refresh=0 / rc=2pass / mbtree=0 / bitrate=4500 / ratetol=1.0 / qcomp=0.60 / qpmin=0 / qpmax=69 / qpstep=5 / cplxblur=20.0 / qblur=0.5 / ip_ratio=1.40 / pb_ratio=1.30 / aq=2:0.80
Language : English
Default : Yes
Forced : No
Audio #2
ID : 2
Format : DTS
Format/Info : Digital Theater Systems
Codec ID : A_DTS
Duration : 1h 33mn
Bit rate mode : Constant
Bit rate : 1 510 Kbps
Channel(s) : 6 channels
Channel positions : Front: L C R, Side: L R, LFE
Sampling rate : 48.0 KHz
Bit depth : 16 bits
Compression mode : Lossy
Stream size : 1 005 MiB (25%)
Title : Dub
Language : Russian
Default : Yes
Forced : No

x264

x264 [info]: frame I:1407 Avg QP:14.98 size:106811
x264 [info]: frame P:31104 Avg QP:17.61 size: 40480
x264 [info]: frame B:101362 Avg QP:19.86 size: 17041
x264 [info]: consecutive B-frames: 2.8% 8.0% 7.4% 17.6% 14.9% 35.3% 7.1% 1.6% 3.4% 2.0%
x264 [info]: mb I I16..4: 4.1% 79.2% 16.7%
x264 [info]: mb P I16..4: 1.7% 15.1% 1.9% P16..4: 28.4% 32.7% 11.6% 0.0% 0.0% skip: 8.6%
x264 [info]: mb B I16..4: 0.3% 1.9% 0.2% B16..8: 34.5% 22.1% 4.2% direct: 9.7% skip:26.9% L0:43.8% L1:41.2% BI:15.0%
x264 [info]: 8x8 transform intra:79.6% inter:58.9%
x264 [info]: direct mvs spatial:95.9% temporal:4.1%
x264 [info]: coded y,uvDC,uvAC intra: 84.0% 85.2% 67.9% inter: 35.8% 38.4% 14.5%
x264 [info]: i16 v,h,dc,p: 24% 20% 6% 50%
x264 [info]: i8 v,h,dc,ddl,ddr,vr,hd,vl,hu: 11% 7% 7% 10% 13% 13% 13% 12% 13%
x264 [info]: i4 v,h,dc,ddl,ddr,vr,hd,vl,hu: 14% 9% 6% 8% 14% 13% 13% 10% 12%
x264 [info]: i8c dc,h,v,p: 44% 20% 17% 19%
x264 [info]: Weighted P-Frames: Y:13.3% UV:9.6%
x264 [info]: ref P L0: 41.1% 8.9% 19.7% 8.4% 6.5% 4.1% 3.7% 2.3% 1.9% 1.5% 1.5% 0.3% 0.1%
x264 [info]: ref B L0: 69.0% 13.4% 6.2% 3.6% 2.3% 1.9% 1.8% 0.9% 0.5% 0.2%
x264 [info]: ref B L1: 92.2% 7.8%
x264 [info]: kb/s:4494.09

Скриншоты


_________________
Показать сообщения:    

Текущее время: Сегодня 01:26

Часовой пояс: GMT



Вы не можете начинать темы
Вы не можете отвечать на сообщения
Вы не можете редактировать свои сообщения
Вы не можете удалять свои сообщения
Вы не можете голосовать в опросах
Вы не можете прикреплять файлы к сообщениям
Вы не можете скачивать файлы
Наши партнеры: интернет магазин Ивановского трикотажа textilla.ru