Важное объявление!
У Нас Все раздачи мультитрекерные, при нуле пиров в релизах, можете смело вставать на закачку!
Статистика раздачи
Размер:     |    Зарегистрирован:     |    Скачан:     |   
Нет
 
     
 
 
Автор Сообщение

HUNTER

Стаж:
5 лет
Сообщений:
67979

Репутация: 101

[+] [-]
Вне форума [Профиль] [ЛС]

Я, Франкенштейн / I, Frankenstein-Год выпуска: 2014
Страна: США
Жанр: Фэнтези, боевик, приключения
Продолжительность: 01:32:48
Перевод: Дублированный (Лицензия)
Субтитры: нет-В ролях: Аарон Экхарт, Ивонн Страховски, Билл Найи, Джай Кортни, Миранда Отто, Кэйтлин Стэйси, Кевин Гревье, Аден Янг, Дениз Акдениз, Крис Пэнг, Вирджиния Ле Брун-Режиссёр: Стюарт Битти-Описание: Монстр Адам, созданный доктором Франкенштейном, благодаря своим уникальным генам доживает до наших дней. Оказавшись в мрачном готическом метрополисе, он попадает в самую гущу вековой войны между двумя кланами бессмертных существ... Мрачное порождение Виктора Франкенштейна живёт уединённой жизнью, понимая, что он другой, и что ему не место среди простых людей. Впрочем, пока не натыкается на гаргулий.... Да, если бы не демоны, которым Адам нужен в виде подопытной крысы, он бы никогда не вернулся из добровольной ссылки. Возвращение Адама превращает зыбкое равновесие в войну на истребление. Сам он оказывается в эпицентре конфликта, и, не осознавая, что является ключевой фигурой в игре вечных противников, яростно вступает в схватку с адскими тварями...-Качество: BDRip-AVC
Формат: MKV
Видео кодек: H.264/AVC
Аудио кодек: AC3
Видео: MPEG4 Video (H264), 1152x484, 3269 Kbps, 24fps
Аудио: Dolby AC3, 48000Hz, 6ch, 512kbps-

MediaInfo

General
Unique ID : 254354313663022844728251690531861775065 (0xBF5ADBE1F8242C539D8EF9B772D342D9)
Complete name : H:\Downloads\BDRemux's\Frankenstein_2014_BDRip-AVC by [url=mailto:D@rkDevil.mkv]D@rkDevil.mkv[/url]
Format : Matroska
Format version : Version 2
File size : 2.51 GiB
Duration : 1h 32mn
Overall bit rate : 3 858 Kbps
Movie name : FRANKENSTEIN.Title1002
Encoded date : UTC 2014-03-01 12:30:25
Writing application : DVDFab
Writing library : libebml v0.7.8 + libmatroska v0.8.1
Video
ID : 1
Format : AVC
Format/Info : Advanced Video Codec
Format profile : [url=mailto:High@L4.1]High@L4.1[/url]
Format settings, CABAC : Yes
Format settings, ReFrames : 2 frames
Codec ID : V_MPEG4/ISO/AVC
Duration : 1h 32mn
Bit rate : 3 269 Kbps
Width : 1 152 pixels
Height : 484 pixels
Display aspect ratio : 2.40:1
Frame rate mode : Constant
Frame rate : 24.000 fps
Color space : YUV
Chroma subsampling : 4:2:0
Bit depth : 8 bits
Scan type : Progressive
Bits/(Pixel*Frame) : 0.244
Stream size : 2.12 GiB (85%)
Writing library : x264 core
Default : Yes
Forced : No
Color primaries : BT.601 NTSC
Transfer characteristics : BT.709
Matrix coefficients : BT.601
Audio
ID : 2
Format : AC-3
Format/Info : Audio Coding 3
Mode extension : CM (complete main)
Format settings, Endianness : Big
Codec ID : A_AC3
Duration : 1h 32mn
Bit rate mode : Constant
Bit rate : 512 Kbps
Channel(s) : 6 channels
Channel positions : Front: L C R, Side: L R, LFE
Sampling rate : 48.0 KHz
Bit depth : 16 bits
Compression mode : Lossy
Stream size : 340 MiB (13%)
Language : Russian
Default : Yes
Forced : No

Скриншоты

-Источник:

_________________
Показать сообщения:    

Текущее время: Сегодня 06:58

Часовой пояс: GMT



Вы не можете начинать темы
Вы не можете отвечать на сообщения
Вы не можете редактировать свои сообщения
Вы не можете удалять свои сообщения
Вы не можете голосовать в опросах
Вы не можете прикреплять файлы к сообщениям
Вы не можете скачивать файлы