Важное объявление!
У Нас Все раздачи мультитрекерные, при нуле пиров в релизах, можете смело вставать на закачку!
 
Автор Сообщение

HUNTER

Стаж:
4 года 9 месяцев
Сообщений:
65047

Репутация: 101

[+] [-]
Вне форума [Профиль] [ЛС]

Я – Семирамида / Раб царицы Семирамиды / Io Semiramide / I Am Semiramis / Slave Queen of Babylon
Страна: Италия
Жанр: Драма
Год выпуска: 1963
Продолжительность: 01:36:27
Перевод: Субтитры Антон Каптелов
Cубтитры: русские
Оригинальная аудиодорожка: итальянский
Режиссер: Примо Зеглио / Primo Zeglio
В ролях: Ивонн Фюрно, Джон Эриксон, Ренцо Риччи, Джанни Риццо, Джермано Лонго, Джон Барта, Нино Ди Наполи, Валери Камилль, Марио Лаурентино, Пьеро Пасторе
Описание: Коварная куртизанка Семирамида (Ивонн Фюрно), фаворитка царя Минурте, мечтает свергнуть своего покровителя и самой воцариться на троне Ассирии. Для достижения своей цели она разрабатывает хитроумный план и вступает в сговор со своим возлюбленным, пленным дарданийским царем Киром.
Доп. информация: Диск из собственной коллекции.
Бонусы: Разделение по главам отсутствует.
Сэмпл: http://sendfile.su/1149914
Тип релиза: DVD5 (Custom)
Контейнер: DVD-Video
Видео: PAL 16:9 (720x576) VBR Auto Pan&Scan
Аудио: English (Dolby AC3, 192 Kbps, 2 ch)
Аудио 2: Italiano (Dolby AC3, 192 Kbps, 2 ch)
Формат субтитров: prerendered (DVD/IDX+SUB)

DVDInfo

Size: 4.06 Gb ( 4 257 776 KBytes ) - DVD-5
Enabled regions: 1, 2, 3, 4, 5, 6, 7, 8
VTS_01 :
Play Length: 01:36:27
Video: PAL 16:9 (720x576) VBR, Auto Pan&Scan
Audio:
English (Dolby AC3, 2 ch)
Italiano (Dolby AC3, 2 ch)
Subtitles:
Russian
Menu Video:
PAL 4:3 (704x576) VBR
Menu English Language Unit :
Root Menu

MediaInfo

General
Complete name : K:\Io Semiramide_1962\VIDEO_TS\VTS_01_1.VOB
Format : MPEG-PS
File size : 1 024 MiB
Duration : 23mn 50s
Overall bit rate mode : Variable
Overall bit rate : 6 006 Kbps
Video
ID : 224 (0xE0)
Format : MPEG Video
Format version : Version 2
Format profile : Main@Main
Format settings, BVOP : Yes
Format settings, Matrix : Default
Format settings, GOP : M=3, N=13
Duration : 23mn 50s
Bit rate mode : Variable
Bit rate : 5 500 Kbps
Width : 720 pixels
Height : 576 pixels
Display aspect ratio : 2.40:1
Frame rate : 25.000 fps
Standard : PAL
Color space : YUV
Chroma subsampling : 4:2:0
Bit depth : 8 bits
Scan type : Interlaced
Scan order : Top Field First
Compression mode : Lossy
Bits/(Pixel*Frame) : 0.530
Stream size : 938 MiB (92%)
Color primaries : BT.601 PAL
Transfer characteristics : BT.470 System B, BT.470 System G
Matrix coefficients : BT.601
Audio #1
ID : 189 (0xBD)-128 (0x80)
Format : AC-3
Format/Info : Audio Coding 3
Mode extension : CM (complete main)
Format settings, Endianness : Big
Muxing mode : DVD-Video
Duration : 23mn 49s
Bit rate mode : Constant
Bit rate : 192 Kbps
Channel(s) : 2 channels
Channel positions : Front: L R
Sampling rate : 48.0 KHz
Bit depth : 16 bits
Compression mode : Lossy
Stream size : 32.7 MiB (3%)
Audio #2
ID : 189 (0xBD)-129 (0x81)
Format : AC-3
Format/Info : Audio Coding 3
Mode extension : CM (complete main)
Format settings, Endianness : Big
Muxing mode : DVD-Video
Duration : 23mn 49s
Bit rate mode : Constant
Bit rate : 192 Kbps
Channel(s) : 2 channels
Channel positions : Front: L R
Sampling rate : 48.0 KHz
Bit depth : 16 bits
Compression mode : Lossy
Stream size : 32.7 MiB (3%)
Text
ID : 189 (0xBD)-32 (0x20)
Format : RLE
Format/Info : Run-length encoding
Muxing mode : DVD-Video
Menu

Постеры

Скриншоты меню

Скриншоты


_________________
Показать сообщения:    

Текущее время: Сегодня 14:13

Часовой пояс: GMT



Вы не можете начинать темы
Вы не можете отвечать на сообщения
Вы не можете редактировать свои сообщения
Вы не можете удалять свои сообщения
Вы не можете голосовать в опросах
Вы не можете прикреплять файлы к сообщениям
Вы не можете скачивать файлы