Важное объявление!
У Нас Все раздачи мультитрекерные, при нуле пиров в релизах, можете смело вставать на закачку!
 
Автор Сообщение

HUNTER

Стаж:
4 года 9 месяцев
Сообщений:
65047

Репутация: 101

[+] [-]
Вне форума [Профиль] [ЛС]

Я сбежал с острова Дьявола / I Escaped from Devil's Island-Страна: Мексика, США
Студия: The Corman Company, Estudios Churubusco Azteca S.A. | United Artists
Жанр: боевик, приключения
Год выпуска: 1973
Продолжительность: 01:23:34-Перевод: Профессиональный (двухголосый закадровый) НТВ+ /Ольга Плетнёва, Александр Воронов/
Cубтитры: нет
Оригинальная аудиодорожка: английский-Режиссер: Уильям Уитни / William Witney
В ролях: Джим Браун, Кристофер Джордж, Ричард Эли, Джеймс Луизи, Пол Ричардс, Ричард Руст, Боб Харрис..- | Релиз: -Описание: Молодой человек Джим Браун содержится в тюрьме строгого режима на затерянном посреди океана острове. Тюремная жизнь, изобилующая жестокостями и унижениями со стороны надзирателей, подлостями и предательствами со стороны сокамерников, доводит Джима до отчаяния. Фаворитизм, гомосексуализм, политическая агитация заставляют Джима думать только о побеге. В конце концов, ему удается вырваться из тюрьмы, но окажется ли жизнь в непроходимых джунглях лучше тюремной?…-Семпл: http://sendfile.su/1138190-Тип релиза: HDTV 1080i
Контейнер: TS
Видео: 1920x1080i (16:9), 25.000 fps, AVC, ~7099 Kbps, 0.137 bits/pixel
Аудио 1: Русский, 48.0 KHz, MPEG-1 Audio layer 2, 2 ch, 192 kbps
Аудио 2: English, 48.0 KHz, MPEG-1 Audio layer 2, 2 ch, 192 kbps

MediaInfo

GeneralID : 1 (0x1)Complete name : I Escaped from Devil's Island 1973 MGMHD 1080i.rus.eng.tsFormat : MPEG-TSFile size : 4.60 GiBDuration : 1h 23mnOverall bit rate mode : VariableOverall bit rate : 7 877 KbpsMaximum Overall bit rate : 35.5 Mbps
VideoID : 4113 (0x1011)Menu ID : 1 (0x1)Format : AVCFormat/Info : Advanced Video CodecFormat profile : Main@L4Format settings, CABAC : YesFormat settings, ReFrames : 4 framesFormat settings, GOP : M=4, N=28Codec ID : 27Duration : 1h 23mnBit rate : 7 099 KbpsWidth : 1 920 pixelsHeight : 1 080 pixelsDisplay aspect ratio : 16:9Frame rate : 25.000 fpsStandard : ComponentColor space : YUVChroma subsampling : 4:2:0Bit depth : 8 bitsScan type : InterlacedScan order : Top Field FirstBits/(Pixel*Frame) : 0.137Stream size : 4.14 GiB (90%)Color range : LimitedColor primaries : BT.709Transfer characteristics : BT.709Matrix coefficients : BT.709
Audio #1ID : 4352 (0x1100)Menu ID : 1 (0x1)Format : MPEG AudioFormat version : Version 1Format profile : Layer 2Codec ID : 4Duration : 1h 23mnBit rate mode : ConstantBit rate : 192 KbpsChannel(s) : 2 channelsSampling rate : 48.0 KHzCompression mode : LossyStream size : 115 MiB (2%)Language : Russian
Audio #2ID : 4353 (0x1101)Menu ID : 1 (0x1)Format : MPEG AudioFormat version : Version 1Format profile : Layer 2Codec ID : 4Duration : 1h 23mnBit rate mode : ConstantBit rate : 192 KbpsChannel(s) : 2 channelsSampling rate : 48.0 KHzCompression mode : LossyStream size : 115 MiB (2%)Language : English

Скриншоты


_________________
Показать сообщения:    

Текущее время: Сегодня 01:26

Часовой пояс: GMT



Вы не можете начинать темы
Вы не можете отвечать на сообщения
Вы не можете редактировать свои сообщения
Вы не можете удалять свои сообщения
Вы не можете голосовать в опросах
Вы не можете прикреплять файлы к сообщениям
Вы не можете скачивать файлы