Важное объявление!
У Нас Все раздачи мультитрекерные, при нуле пиров в релизах, можете смело вставать на закачку!
 
Автор Сообщение

HUNTER

Стаж:
4 года 8 месяцев
Сообщений:
62128

Репутация: 101

[+] [-]
Вне форума [Профиль] [ЛС]

Я плюю на ваши могилы / I Spit on Your Grave / Unrated Cut
Страна: США
Студия: Cinetel Films, Anchor Bay Films, Family of the Year Productions
Жанр: ужасы, триллер, криминал
Год выпуска: 2010
Продолжительность: 01:47:56
Перевод 1: Профессиональный (дублированный) Blu-ray
Перевод 2: Одноголосый закадровый Д. Строев
Cубтитры: русские, английские
Оригинальная аудиодорожка: английский
Режиссер: Стивен Р. Монро / Steven R. Monroe
В ролях: Сара Батлер, Джефф Брэнсон, Эндрю Ховард, Дэниел Фрэнзиси, Родни Истман, Чэд Линдберг, Трейси Уолтер, Молли Миллиган, Саксон Шарбино, Эмбер Даун Лэндрум
Описание: Молодая писательница Дженнифер снимает домик в глухом лесу, чтобы в уединении написать роман. Но издатель не дождется нового бестселлера... Четверо местных отморозков жестоко насилуют девушку и обрекают ее на мучительную смерть. Но Дженнифер сумела выжить и теперь ее единственная цель - месть. И месть эта будет столь ужасной, что бывшие насильники проклянут тот день, когда встретили ее впервые...- -Сэмпл: http://sendfile.su/1168105
Тип релиза: BDRip 1080p [CtrlHD]
Контейнер: MKV
Видео: h.264, 1920x1080, 24.000 fps, 12289 kbps
Аудио #1: Russian: DTS 5.1, 48 kHz, 1152 kbps avg |Дубляж, Blu-ray|
Аудио #2: Russian: AC3 5.1, 48 kHz, 448 kbps avg |Одноголосый закадровый, Д. Строев|
Аудио #3: English: DTS 5.1, 48 kHz, 1536 kbps avg
Формат субтитров: softsub (SRT)

MediaInfo

Complete name : E:\I.Spit.on.Your.Grave.2010.1080p.BluRay.2xRus.Eng.HDCLUB.mkv
Format : Matroska
Format version : Version 4 / Version 2
File size : 11.6 GiB
Duration : 1h 47mn
Overall bit rate : 15.4 Mbps
Movie name : I Spit on Your Grave (2010) - Release for HDCLUB
Encoded date : UTC 2013-05-19 07:21:30
Writing application : mkvmerge v6.2.0 ('Promised Land') built on Apr 28 2013 12:22:01
Writing library : libebml v1.3.0 + libmatroska v1.4.0
Attachements : cover.jpg
Video
ID : 1
Format : AVC
Format/Info : Advanced Video Codec
Format profile : High@L4.1
Format settings, CABAC : Yes
Format settings, ReFrames : 4 frames
Codec ID : V_MPEG4/ISO/AVC
Duration : 1h 47mn
Bit rate : 12.0 Mbps
Width : 1 920 pixels
Height : 1 080 pixels
Display aspect ratio : 16:9
Frame rate mode : Constant
Frame rate : 24.000 fps
Color space : YUV
Chroma subsampling : 4:2:0
Bit depth : 8 bits
Scan type : Progressive
Bits/(Pixel*Frame) : 0.241
Stream size : 9.04 GiB (78%)
Title : Release for HDCLUB
Writing library : x264 core 122 r2184 5c85e0a
Encoding settings : cabac=1 / ref=4 / deblock=1:-3:-3 / analyse=0x3:0x113 / me=umh / subme=11 / psy=1 / psy_rd=1.05:0.00 / mixed_ref=1 / me_range=16 / chroma_me=1 / trellis=2 / 8x8dct=1 / cqm=0 / deadzone=21,11 / fast_pskip=0 / chroma_qp_offset=-2 / threads=6 / sliced_threads=0 / nr=0 / decimate=0 / interlaced=0 / bluray_compat=0 / constrained_intra=0 / bframes=8 / b_pyramid=2 / b_adapt=2 / b_bias=0 / direct=3 / weightb=1 / open_gop=0 / weightp=2 / keyint=250 / keyint_min=24 / scenecut=40 / intra_refresh=0 / rc=crf / mbtree=0 / crf=19.0 / qcomp=0.75 / qpmin=0 / qpmax=69 / qpstep=4 / ip_ratio=1.30 / pb_ratio=1.20 / aq=1:0.90
Language : English
Default : Yes
Forced : No
Audio #1
ID : 2
Format : DTS
Format/Info : Digital Theater Systems
Mode : 16
Format settings, Endianness : Big
Codec ID : A_DTS
Duration : 1h 47mn
Bit rate mode : Constant
Bit rate : 1 152 Kbps
Channel(s) : 6 channels
Channel positions : Front: L C R, Side: L R, LFE
Sampling rate : 48.0 KHz
Bit depth : 16 bits
Compression mode : Lossy
Stream size : 889 MiB (7%)
Title : DTS 5.1 @ 1536 kbps - Dub
Language : Russian
Default : Yes
Forced : No
Audio #2
ID : 3
Format : AC-3
Format/Info : Audio Coding 3
Mode extension : CM (complete main)
Format settings, Endianness : Big
Codec ID : A_AC3
Duration : 1h 47mn
Bit rate mode : Constant
Bit rate : 448 Kbps
Channel(s) : 6 channels
Channel positions : Front: L C R, Side: L R, LFE
Sampling rate : 48.0 KHz
Compression mode : Lossy
Stream size : 346 MiB (3%)
Title : AC3 5.1 @ 448 kbps - VO, Stroev
Language : Russian
Default : No
Forced : No
Audio #3
ID : 4
Format : DTS
Format/Info : Digital Theater Systems
Mode : 16
Format settings, Endianness : Big
Codec ID : A_DTS
Duration : 1h 47mn
Bit rate mode : Constant
Bit rate : 1 509 Kbps
Channel(s) : 6 channels
Channel positions : Front: L C R, Side: L R, LFE
Sampling rate : 48.0 KHz
Bit depth : 24 bits
Compression mode : Lossy
Stream size : 1.14 GiB (10%)
Title : DTS 5.1 @ 1536 kbps
Language : English
Default : No
Forced : No
Text #1
ID : 5
Format : UTF-8
Codec ID : S_TEXT/UTF8
Codec ID/Info : UTF-8 Plain Text
Language : Russian
Default : No
Forced : No
Text #2
ID : 6
Format : UTF-8
Codec ID : S_TEXT/UTF8
Codec ID/Info : UTF-8 Plain Text
Language : English
Default : No
Forced : No
Menu
00:00:00.000 : en:00:00:00.000
00:10:14.417 : en:00:10:14.417
00:18:23.167 : en:00:18:23.167
00:33:16.208 : en:00:33:16.208
00:49:36.417 : en:00:49:36.417
01:04:32.167 : en:01:04:32.167
01:17:10.042 : en:01:17:10.042
01:35:47.750 : en:01:35:47.750

Скриншоты


_________________
Показать сообщения:    

Текущее время: Сегодня 00:55

Часовой пояс: GMT



Вы не можете начинать темы
Вы не можете отвечать на сообщения
Вы не можете редактировать свои сообщения
Вы не можете удалять свои сообщения
Вы не можете голосовать в опросах
Вы не можете прикреплять файлы к сообщениям
Вы не можете скачивать файлы
Наши партнеры: интернет магазин Ивановского трикотажа textilla.ru