Важное объявление!
У Нас Все раздачи мультитрекерные, при нуле пиров в релизах, можете смело вставать на закачку!
Статистика раздачи
Размер:     |    Зарегистрирован:     |    Скачан:     |   
Нет
 
     
 
 
Автор Сообщение

димитри37

Стаж:
4 года 4 месяца
Сообщений:
1236

Репутация: 127

[+] [-]
Вне форума [Профиль] [ЛС]

Я очень возбужден / Los amantes pasajeros
Страна: Испания
Жанр: Комедия
Год выпуска: 2013
Продолжительность: 01:26:30
Перевод: Профессиональный (дублированный)
Режиссер: Педро Альмодовар / Pedro Almodovar
В ролях: Хавьер Камара, Сесилия Рот, Лола Дуэньяс, Карлос Аресес, Рауль Аревало, Хосе Луис Торрихо, Антонио де ла Торре, Уго Силва,
Антонио Бандерас, Пенелопа Крус и др.
Описание: Рейс лайнера, совершающего перелет в Мексику, начался как обычно: пассажиры пристегнули ремни, а командир корабля, включив автопилот, спокойно уснул. Но прямо над океаном оказалось, что самолет неисправен, исчезает интернет, и все гаджеты разом выходят из строя. Всех охватывает страх, ужас, отчаяние. Беспомощные пассажиры и экипаж, оказавшись пред лицом гибели, наконец-то должны стать сами собой. Так что несчастным на борту падающего самолета не остается ничего, как только петь и танцевать вслед за веселыми стюардами.
Качество видео: DVDRip
Формат видео: AVI
Видео: XviD; 720х384; 25 fps; ~1900 kbps
Аудио 1: AC3; 48 kHz; 5.1 (Front: L C R, Side: L R, LFE); 384 kbps | Dub (Лицензия)
Аудио 2: AC3; 48 kHz; 5.1 (Front: L C R, Side: L R, LFE); 384 kbps | Original (Espaпol) -

MediaInfo

Общее
Полное имя : Los amantes pasajeros (2013).avi
Формат : AVI
Формат/Информация : Audio Video Interleave
Размер файла : 1,38 Гбайт
Продолжительность : 1 ч. 26 м.
Общий поток : 2288 Кбит/сек
Программа кодирования : VirtualDubModRus 1.5.10.2 (build 2542/release)
Библиотека кодирования : VirtualDubMod build 2542/release
Видео
Идентификатор : 0
Формат : MPEG-4 Visual
Профиль формата : Advanced Simple@L5
Параметр BVOP формата : 2
Параметр QPel формата : Нет
Параметр GMC формата : Без точки перехода
Параметр матрицы формата : Default (MPEG)
Идентификатор кодека : XVID
Идентификатор кодека/Подсказка : XviD
Продолжительность : 1 ч. 26 м.
Битрейт : 1900 Кбит/сек
Ширина : 720 пикселей
Высота : 384 пикселя
Соотношение сторон : 1,85:1
Частота кадров : 25,000 кадров/сек
Цветовое пространство : YUV
Субдискретизация насыщенности : 4:2:0
Битовая глубина : 8 бит
Тип развёртки : Прогрессивная
Метод сжатия : С потерями
Бит/(Пиксели*Кадры) : 0.275
Размер потока : 1,15 Гбайт (83%)
Библиотека кодирования : XviD 1.2.1 (UTC 2008-12-04)
Аудио
Идентификатор : 1
Формат : AC-3
Формат/Информация : Audio Coding 3
Расширение режима : CM (complete main)
Параметр Endianness формата : Big
Идентификатор кодека : 2000
Продолжительность : 1 ч. 26 м.
Вид битрейта : Постоянный
Битрейт : 384 Кбит/сек
Каналы : 6 каналов
Расположение каналов : Front: L C R, Side: L R, LFE
Частота : 48,0 КГц
Битовая глубина : 16 бит
Метод сжатия : С потерями
Размер потока : 234 Мбайт (17%)
Выравнивание : Разделение по промежуткам
Продолжительность промежутка : 41 мс. (1,01 видеокадр)
Время предзагрузки промежутка : 500 мс.

Скриншот с названием фильма

Скриншоты


-Источник:
Показать сообщения:    

Текущее время: Сегодня 10:39

Часовой пояс: GMT



Вы не можете начинать темы
Вы не можете отвечать на сообщения
Вы не можете редактировать свои сообщения
Вы не можете удалять свои сообщения
Вы не можете голосовать в опросах
Вы не можете прикреплять файлы к сообщениям
Вы не можете скачивать файлы