Ивановский Торрент трекер
Яндекс.Погода
 

[Цитировать]
HUNTER

Я могла бы продолжать петь / I Could Go on Singing-Страна: Великобритания, США
Студия: Barbican Films | United Artists
Жанр: мюзикл, драма
Год выпуска: 1963
Продолжительность: 01:35:03-Перевод: Профессиональный (двухголосый закадровый) НТВ+
Cубтитры: нет
Оригинальная аудиодорожка: английский-Режиссер: Роналд Ним / Ronald Neame
В ролях: Джуди Гарлэнд, Дирк Богард, Джек Клагмен, Элин МакМэон, Грегори Филлипс, Расселл Уотерс, Полин Джеймисон, Джереми Бёрнэм, Эрик Вудберн, Роберт Ритти...- | Релиз: -Описание: Успешная певица Дженни Боуман, пользуясь случаем, решает навестить Дэвида Донна, чтобы увидеть своего сына Мэтта. Оказывается, что Дэвид уехал в Рим, и она проводит несколько дней вдвоем с сыном, пытаясь восстановить семейные отношения. Вскоре Дэвид возвращается…-Семпл: http://sendfile.su/1138288-Тип релиза: HDTV 1080i
Контейнер: TS
Видео: 1920x1080i (16:9), 25.000 fps, AVC, ~9176 Kbps, 0.177 bits/pixel
Аудио 1: Русский, 48.0 KHz, MPEG-1 Audio layer 2, 2 ch, 192 kbps
Аудио 2: English, 48.0 KHz, MPEG-1 Audio layer 2, 2 ch, 192 kbps

MediaInfo

GeneralID : 1 (0x1)Complete name : I Could Go on Singing 1963 MGMHD 1080i.rus.eng.tsFormat : MPEG-TSFile size : 6.68 GiBDuration : 1h 35mnOverall bit rate mode : VariableOverall bit rate : 10.1 MbpsMaximum Overall bit rate : 35.5 Mbps
VideoID : 4113 (0x1011)Menu ID : 1 (0x1)Format : AVCFormat/Info : Advanced Video CodecFormat profile : Main@L4Format settings, CABAC : YesFormat settings, ReFrames : 4 framesCodec ID : 27Duration : 1h 35mnBit rate : 9 176 KbpsWidth : 1 920 pixelsHeight : 1 080 pixelsDisplay aspect ratio : 16:9Frame rate : 25.000 fpsStandard : ComponentColor space : YUVChroma subsampling : 4:2:0Bit depth : 8 bitsScan type : InterlacedScan order : Top Field FirstBits/(Pixel*Frame) : 0.177Stream size : 6.09 GiB (91%)Color range : LimitedColor primaries : BT.709Transfer characteristics : BT.709Matrix coefficients : BT.709
Audio #1ID : 4352 (0x1100)Menu ID : 1 (0x1)Format : MPEG AudioFormat version : Version 1Format profile : Layer 2Codec ID : 4Duration : 1h 35mnBit rate mode : ConstantBit rate : 192 KbpsChannel(s) : 2 channelsSampling rate : 48.0 KHzCompression mode : LossyStream size : 131 MiB (2%)Language : Russian
Audio #2ID : 4353 (0x1101)Menu ID : 1 (0x1)Format : MPEG AudioFormat version : Version 1Format profile : Layer 2Codec ID : 4Duration : 1h 35mnBit rate mode : ConstantBit rate : 192 KbpsChannel(s) : 2 channelsSampling rate : 48.0 KHzCompression mode : LossyStream size : 131 MiB (2%)Language : English

Скриншоты

Показать сообщения:    

Текущее время: 22-Сен 05:22

Часовой пояс: UTC - 1


Вы не можете начинать темы
Вы не можете отвечать на сообщения
Вы не можете редактировать свои сообщения
Вы не можете удалять свои сообщения
Вы не можете голосовать в опросах
Вы не можете прикреплять файлы к сообщениям
Вы не можете скачивать файлы

!ВНИМАНИЕ!
Сайт не предоставляет электронные версии произведений, а занимается лишь коллекционированием и каталогизацией ссылок, присылаемых и публикуемых на форуме нашими читателями. Если вы являетесь правообладателем какого-либо представленного материала и не желаете, чтобы ссылка на него находилась в нашем каталоге, свяжитесь с нами, и мы незамедлительно удалим ее. Файлы для обмена на трекере предоставлены пользователями сайта, и администрация не несет ответственности за их содержание. Просьба не заливать файлы, защищенные авторскими правами, а также файлы нелегального содержания!