Важное объявление!
У Нас Все раздачи мультитрекерные, при нуле пиров в релизах, можете смело вставать на закачку!
 
Автор Сообщение

димитри37

Стаж:
4 года 2 месяца
Сообщений:
1236

Репутация: 127

[+] [-]
Вне форума [Профиль] [ЛС]

Я люблю тебя, Филлип Моррис / I Love You Phillip Morris
Страна: Франция, США
Жанр: драма, мелодрама, комедия
Год выпуска: 2008
Продолжительность: 98 мин. / 01:38
Перевод: Профессиональный (дублированный) Тимур Батрутдинов Пётр Фёдоров Ольга Лысак Алек
Cубтитры: нет
Режиссер: Гленн Фикарра, Джон Рекуа/Glenn Ficarra,John Requa
В ролях: Джим Керри
Юэн МакГрегор
Лесли Манн
Родриго Санторо
Энтони Короне
Бреннан Браун
Майкл Манделл
Энни Голден
Мэрилуиз Бёрк
Дэвид Дженсен
Описание: Стивен Расселл — образцовый отец семейства — в результате дерзкой аферы оказывается в техасской тюрьме. Там он без памяти влюбляется в другого заключенного, Филлипа Морриса.
Качество видео: DVDRip
Формат видео: AVI
Видео: Декодер -(XVID) KMP Video Codec(XVID-libcodec.dll) Формат -Major Type: Video - Sub Type: YUY2 VideoInfo: YUY2 704X384, 16 bits Формат -Major Type: Video - Sub Type: YV12 VideoInfo: YV12 1024X-384,
Аудио: (0x2000) KMP Audio Codec(AC3(Dolby Digital)-liba52.dll) Формат -Major Type: Audio - Sub Type: PCM WaveFormatEx: ExtPCM(0xFFFE), 48000 Hz, 16 Bits, 6 Ch

MediaInfo

[Видеоданные]
Декодер -(XVID) KMP Video Codec(XVID-libcodec.dll)
Формат -Major Type: Video - Sub Type: YUY2
VideoInfo: YUY2 704X384, 16 bits
Формат -Major Type: Video - Sub Type: YV12
VideoInfo: YV12 1024X-384, 12 bits
[Аудиоданные]
Декодер -(0x2000) KMP Audio Codec(AC3(Dolby Digital)-liba52.dll)
Формат -Major Type: Audio - Sub Type: PCM
WaveFormatEx: ExtPCM(0xFFFE), 48000 Hz, 16 Bits, 6 Ch
[Базовый видео DSP]
Internal brightness: 100%
[Расширенный видео DSP]
+PictureProperty(S/W Process)
-LumGain: 123
-LumOffset: 0
-Gamma: 100
-HUE: 0
-Saturation: 64
+Video Plugin
[Аудио DSP]
+Pre amplification: Main: (100%)
+Auto Volume Control
+Treble Enhance: 0
+3D Effect: 5000
+Audio Plugin
[Настройки субтитров]
+Draw Mode(Selected): Overlay
+Draw Mode(In use): None
+Text Rendering Method: Rasterizer
+Support HTML Tags(SMI)
[KMPlayer]
+Version: 3.4.0.59(8 236 672, 07.11.2012 5:17:02)
+libcodec.dll: (4 562 432, 31.10.2012 12:59:32)
+libmplay.dll: (538 112, 31.10.2012 12:59:32)
+PProcDLL.dll: 1.0.0.1(1 769 472, 25.02.2008 10:07:04)
+LibDTS.dll: (178 174, 05.12.2008 11:42:20)
+liba52.dll: (73 063, 05.12.2008 11:41:10)
+libfaad2.dll: (335 155, 05.12.2008 11:37:06)
+libmad.dll: (123 036, 05.12.2008 11:42:30)
+libmpeg2.dll: (154 644, 05.12.2008 11:42:42)
+theora.dll: (200 864, 05.12.2008 11:43:32)
+OggVorbis.dll: (1 165 312, 25.02.2008 10:07:00)
+xviddll.dll: (758 319, 05.12.2008 11:58:36)
+Old_QUARTZ.DLL: 6.01.05.0319(770 048, 25.02.2008 10:07:00)
+AboutDll.dll: (105 472, 03.10.2005 9:12:18)
+DTView.dll: (98 304, 21.02.2012 13:27:36)
+ImLoader.dll: (856 064, 25.02.2008 10:05:22)
+MediaInfo.dll: 0.7.61.0(3 032 984, 30.10.2012 6:34:54)
+KMPAlbumArt.dll: 2009, 1, 5, 0(2 400 256, 05.01.2009 22:33:48)
+logo\KMP_Album_Art.swf: (1 109 330, 27.11.2012 9:45:42)
--------------------
[Сведения о файле]
--------------------
Format : AVI
Format/Info : Audio Video Interleave
File size : 1.37 GiB
Duration : 1h 33mn
Overall bit rate : 2 106 Kbps
Writing library : VirtualDub build 30009/release
Video #0
ID : 0
Format : MPEG-4 Visual
Format profile : Advanced Simple@L5
Format settings, BVOP : 2
Format settings, QPel : No
Format settings, GMC : No warppoints
Format settings, Matrix : Default (H.263)
Muxing mode : Packed bitstream
Codec ID : XVID
Codec ID/Hint : XviD
Duration : 1h 33mn
Bit rate : 1 648 Kbps
Width : 704 pixels
Height : 384 pixels
Display aspect ratio : 1.85:1
Frame rate : 25.000 fps
Color space : YUV
Chroma subsampling : 4:2:0
Bit depth : 8 bits
Scan type : Progressive
Compression mode : Lossy
Bits/(Pixel*Frame) : 0.244
Stream size : 1.07 GiB (78%)
Writing library : XviD 1.2.1 (UTC 2008-12-04)
Audio #1
ID : 1
Format : AC-3
Format/Info : Audio Coding 3
Mode extension : CM (complete main)
Format settings, Endianness : Big
Codec ID : 2000
Duration : 1h 33mn
Bit rate mode : Constant
Bit rate : 448 Kbps
Channel(s) : 6 channels
Channel positions : Front: L C R, Side: L R, LFE
Sampling rate : 48.0 KHz
Bit depth : 16 bits
Compression mode : Lossy
Stream size : 299 MiB (21%)
Alignment : Aligned on interleaves
Interleave, duration : 40 ms (1.00 video frame)
Interleave, preload duration : 512 ms

Скриншоты




Показать сообщения:    

Текущее время: Сегодня 12:33

Часовой пояс: GMT



Вы не можете начинать темы
Вы не можете отвечать на сообщения
Вы не можете редактировать свои сообщения
Вы не можете удалять свои сообщения
Вы не можете голосовать в опросах
Вы не можете прикреплять файлы к сообщениям
Вы не можете скачивать файлы