Важное объявление!
У Нас Все раздачи мультитрекерные, при нуле пиров в релизах, можете смело вставать на закачку!
 
Автор Сообщение

HUNTER

Стаж:
4 года 7 месяцев
Сообщений:
61531

Репутация: 101

[+] [-]
Вне форума [Профиль] [ЛС]

Я люблю тебя до смерти / I Love You to Death
Страна: США
Студия: Chestnut Hill Productions, TriStar Pictures
Жанр: комедия, криминал
Год выпуска: 1990
Продолжительность: 01:37:12
Перевод: Профессиональный (дублированный) Варус Видео
Перевод 2: Профессиональный (многоголосый закадровый) ТВ5 (Санкт-Петербург)
Перевод 3: Профессиональный (двухголосый закадровый) Видеофильм Интернэшнл
Перевод 4: Авторский (одноголосый закадровый) М.Иванов
Cубтитры: английские
Оригинальная аудиодорожка: английский
Режиссер: Лоуренс Кэздан / Lawrence Kasdan
В ролях: Кевин Клайн, Трейси Ульман, Джоан Плаурайт, Ривер Феникс, Уильям Херт, Киану Ривз, Виктория Джексон, Мириам Маргулис, Элисан Портер, Джон Кэздан
Описание: Если бывшая любовь не умирает, можно позвать на помощь киллеров? Узнав, что её муж Джоуи давно и усердно ей изменяет, ревнивая Розали Бока решила, что, как настоящая католичка, непременно должна отправить супруга за такие шалости на тот свет. Но полная некомпетентность в теории душегубства встает непреодолимым препятствием её планам. "Доморощенные" попытки убийства проваливаются одна за другой самым анекдотичным образом, и тогда раздосадованная Розали решает нанять профессионалов. Однако даже профи готовы спасовать перед поразительной везучестью супруга. Похоже, песню этого живучего гуляки не задушишь, не убьешь!
Sample
Тип релиза: WEB-DL 720p
Контейнер: MKV
Видео: MPEG4 AVC Video, H264, 16:9, 1280x718, 23.976 fps, 4158 kbps
Аудио: Russian (AC3, 2 ch, 192 kbps, 16 bits, 48.0 KHz) - Варус Видео
Аудио 2: Russian (AC3, 2 ch, 192 kbps, 16 bits, 48.0 KHz) - ТВ5 (Санкт-Петербург)
Аудио 3: Russian (AC3, 2 ch, 192 kbps, 16 bits, 48.0 KHz) - Видеофильм Интернэшнл
Аудио 4: Russian (AC3, 2 ch, 192 kbps, 16 bits, 48.0 KHz) - М.Иванов
Аудио 5: English (AC3, 2 ch, 192 kbps, 16 bits, 48.0 KHz) - оригинал
Формат субтитров: softsub (SRT)

MediaInfo

General
Unique ID : 230539698783924934082236595367507092378 (0xAD7054B78D95842D90133ECCC18B639A)
Complete name : E:\1\I Love You to Death 1990 WEB-DL 720p.mkv
Format : Matroska
Format version : Version 4 / Version 2
File size : 3.55 GiB
Duration : 1h 37mn
Overall bit rate : 5 222 Kbps
Encoded date : UTC 2015-02-27 08:57:24
Writing application : mkvmerge v6.1.0 ('Old Devil') built on Mar 2 2013 14:32:37
Writing library : libebml v1.3.0 + libmatroska v1.4.0
Video
ID : 1
Format : AVC
Format/Info : Advanced Video Codec
Format profile : High@L3.1
Format settings, CABAC : No
Format settings, ReFrames : 2 frames
Codec ID : V_MPEG4/ISO/AVC
Duration : 1h 37mn
Bit rate : 4 158 Kbps
Width : 1 280 pixels
Height : 718 pixels
Display aspect ratio : 16:9
Frame rate mode : Constant
Frame rate : 23.976 fps
Color space : YUV
Chroma subsampling : 4:2:0
Bit depth : 8 bits
Scan type : Progressive
Bits/(Pixel*Frame) : 0.189
Stream size : 2.82 GiB (80%)
Language : English
Default : Yes
Forced : No
Color primaries : BT.709
Transfer characteristics : BT.709
Matrix coefficients : BT.709
Audio #1
ID : 2
Format : AC-3
Format/Info : Audio Coding 3
Mode extension : CM (complete main)
Format settings, Endianness : Big
Codec ID : A_AC3
Duration : 1h 37mn
Bit rate mode : Constant
Bit rate : 192 Kbps
Channel count : 2 channels
Channel positions : Front: L R
Sampling rate : 48.0 KHz
Bit depth : 16 bits
Compression mode : Lossy
Stream size : 133 MiB (4%)
Title : Варус Видео
Language : Russian
Default : Yes
Forced : Yes
Audio #2
ID : 3
Format : AC-3
Format/Info : Audio Coding 3
Mode extension : CM (complete main)
Format settings, Endianness : Big
Codec ID : A_AC3
Duration : 1h 37mn
Bit rate mode : Constant
Bit rate : 192 Kbps
Channel count : 2 channels
Channel positions : Front: L R
Sampling rate : 48.0 KHz
Bit depth : 16 bits
Compression mode : Lossy
Stream size : 133 MiB (4%)
Title : ТВ5
Language : Russian
Default : No
Forced : No
Audio #3
ID : 4
Format : AC-3
Format/Info : Audio Coding 3
Mode extension : CM (complete main)
Format settings, Endianness : Big
Codec ID : A_AC3
Duration : 1h 37mn
Bit rate mode : Constant
Bit rate : 192 Kbps
Channel count : 2 channels
Channel positions : Front: L R
Sampling rate : 48.0 KHz
Bit depth : 16 bits
Compression mode : Lossy
Stream size : 133 MiB (4%)
Title : Видеофильм Интернэшнл
Language : Russian
Default : No
Forced : No
Audio #4
ID : 5
Format : AC-3
Format/Info : Audio Coding 3
Mode extension : CM (complete main)
Format settings, Endianness : Big
Codec ID : A_AC3
Duration : 1h 37mn
Bit rate mode : Constant
Bit rate : 192 Kbps
Channel count : 2 channels
Channel positions : Front: L R
Sampling rate : 48.0 KHz
Bit depth : 16 bits
Compression mode : Lossy
Stream size : 133 MiB (4%)
Title : М.Иванов
Language : Russian
Default : No
Forced : No
Audio #5
ID : 6
Format : AC-3
Format/Info : Audio Coding 3
Mode extension : CM (complete main)
Format settings, Endianness : Big
Codec ID : A_AC3
Duration : 1h 37mn
Bit rate mode : Constant
Bit rate : 192 Kbps
Channel count : 2 channels
Channel positions : Front: L R
Sampling rate : 48.0 KHz
Bit depth : 16 bits
Compression mode : Lossy
Stream size : 133 MiB (4%)
Language : English
Default : No
Forced : No
Text
ID : 7
Format : UTF-8
Codec ID : S_TEXT/UTF8
Codec ID/Info : UTF-8 Plain Text
Language : English
Default : No
Forced : No
Menu
00:00:00.000 : en:Start
00:06:26.000 : en:The defenders of justice
00:07:48.000 : en:Checking Lacey's pipes
00:12:35.000 : en:Mama Nadja
00:14:28.000 : en:Reading the runes
00:17:47.000 : en:Disco pickup
00:24:37.000 : en:Bridget
00:26:52.000 : en:Family curses
00:28:27.000 : en:Caught in the act
00:33:31.000 : en:The first attempt
00:37:21.000 : en:The second attempt
00:41:02.000 : en:The third attempt
00:44:16.000 : en:"He's not human."
00:48:26.000 : en:Murder Inc.
00:52:56.000 : en:Harlan & Marlon
00:56:11.000 : en:Cab ride to the scene of the crime
01:00:13.000 : en:The murder weapon
01:01:41.000 : en:"Read him his rights & kill him."
01:02:52.000 : en:Reggie! Reggie! Reggie!
01:04:15.000 : en:Taking the pledge
01:07:43.000 : en:Return of the living dead
01:12:49.000 : en:$200 for wounding
01:15:55.000 : en:"He's been shot in the head."
01:18:44.000 : en:Questioning the suspects
01:21:49.000 : en:It's all over now
01:24:10.000 : en:Another shot to the head
01:26:41.000 : en:Bailing out everybody
01:32:02.000 : en:Doomed to be together

Скриншоты


_________________
Показать сообщения:    

Текущее время: Сегодня 06:03

Часовой пояс: GMT



Вы не можете начинать темы
Вы не можете отвечать на сообщения
Вы не можете редактировать свои сообщения
Вы не можете удалять свои сообщения
Вы не можете голосовать в опросах
Вы не можете прикреплять файлы к сообщениям
Вы не можете скачивать файлы
Наши партнеры: интернет магазин Ивановского трикотажа textilla.ru