Важное объявление!
У Нас Все раздачи мультитрекерные, при нуле пиров в релизах, можете смело вставать на закачку!
Статистика раздачи
Размер:     |    Зарегистрирован:     |    Скачан:     |   
Нет
 
     
 
 
Автор Сообщение

HUNTER

Стаж:
5 лет
Сообщений:
67947

Репутация: 101

[+] [-]
Вне форума [Профиль] [ЛС]

Я завязал / Свести счеты / Gettin' Square-
Страна: Австралия, Великобритания
Жанр: триллер, комедия, криминал
Год выпуска: 2003
Продолжительность: 01:42:16
Перевод 1: Профессиональный (многоголосый закадровый) - Первый канал
Перевод 2: Авторский (одноголосый закадровый) - Визгунов
Cубтитры: английские
Оригинальная аудиодорожка: английский-Режиссер: Джонатан Теплитски / Jonathan Teplitzky
В ролях: Сэм Уортингтон, Дэвид Уэнэм, Тимоти Сполл, Фрея Стэффорд, Гари Свит, Дэвид Робертс, Дэвид Филд, Люк Пеглер, Ричард Картер, Митчел Бутел, Гарри Уоддэлл, Джон Брамптон, Хелен Томсон, Мареа Ламберт Баркер, Джо Багнер, Ugly Dave Gray, Стивен Тэнди, Джонатан Биггинс, Кэрол Барнс, Джаред Робинсон, Лео Тейлор, Gretel Killeen, Джейсон Гэнн, Дон Бриджес, Сью Эллен Андервуд, Удо Бартшат, Стивен Бишоп, Питер Блэкберн, Митч Бреннан, Питер Баклер, Терри Черч, Роуэн Дави, Риз Дейвис, Бэрри Доннелли, Тим Фрайзер, Gillian Hayllar, Richard Klinge, Алан Лэйн, Грэхэм Мур, Кристиан О’Дауд, Люсиль О’Дауд, Руби О’Рурк, Daniel Pirrone-Cook, Benjamin Prindable, Майкл Рэйнер, Viv Schwalger, Чарли Синглтон, Лия Синглтон, Дэниэл Тернбулл, Dion Wagensveld, Тим Уорд, Билл Уотерс, Тони Никсон-Описание: «Уотси» Верт, только что вышедший из тюрьмы, собирается начать новую жизнь. Его приятели — мелкий жулик Джонни Спитиери и вор Дабба Баррингтон — тоже на пути к исправлению. Решетка для них осталась в прошлом, и друзья клянутся, что никогда за нее не вернутся. За их праведными намерениями пристально следит недавно сформированная Следственная комиссия. И ребятам придется изрядно потрудиться и пошевелить мозгами, чтобы сдержать обещание…
- -Тип релиза: BDRip 720p
Контейнер: MKV
Видео: x.264, 1280x694, 8500 kbps, 23.976 fps, 0.39 bpf
Аудио 1: AC3, 192 kbps, 2.0 channels, 48000 Hz - MVO (Первый канал)
Аудио 2: AC3, 192 kbps, 2.0 channels, 48000 Hz - AVO (Визгунов)
Аудио 3: DTS, 1509 kbps, 5.1 channels, 48000 Hz -ENG
Формат субтитров: softsub (SRT)
-

Скриншоты


Резервные скриншоты



-

MediaInfo

Format : Matroska
Format version : Version 4 / Version 2
File size : 7.42 GiB
Duration : 1h 42mn
Overall bit rate : 10.4 Mbps
Movie name : Я завязал / Gettin' Square (2003) BDRip 720p [RG Torrents.ru]
Encoded date : UTC 2015-09-06 19:46:52
Writing application : mkvmerge v7.8.0 ('River Man') 32bit built on Mar 27 2015 16:18:02
Writing library : libebml v1.3.1 + libmatroska v1.4.2
Cover : Yes
Video
ID : 1
Format : AVC
Format/Info : Advanced Video Codec
Format profile : High@L4.1
Format settings, CABAC : Yes
Format settings, ReFrames : 9 frames
Codec ID : V_MPEG4/ISO/AVC
Duration : 1h 42mn
Bit rate : 8 500 Kbps
Width : 1 280 pixels
Height : 694 pixels
Display aspect ratio : 1.85:1
Frame rate mode : Constant
Frame rate : 23.976 fps
Color space : YUV
Chroma subsampling : 4:2:0
Bit depth : 8 bits
Scan type : Progressive
Bits/(Pixel*Frame) : 0.399
Stream size : 5.92 GiB (80%)
Title : RG Torrents.ru
Writing library : x264 core 148 r2597 e86f3a1
Encoding settings : cabac=1 / ref=9 / deblock=1:-3:-3 / analyse=0x3:0x113 / me=umh / subme=10 / psy=1 / psy_rd=1.10:0.00 / mixed_ref=1 / me_range=32 / chroma_me=1 / trellis=2 / 8x8dct=1 / cqm=0 / deadzone=21,11 / fast_pskip=0 / chroma_qp_offset=-2 / threads=3 / lookahead_threads=1 / sliced_threads=0 / nr=0 / decimate=1 / interlaced=0 / bluray_compat=0 / constrained_intra=0 / bframes=10 / b_pyramid=2 / b_adapt=2 / b_bias=0 / direct=3 / weightb=1 / open_gop=0 / weightp=2 / keyint=240 / keyint_min=23 / scenecut=40 / intra_refresh=0 / rc_lookahead=60 / rc=2pass / mbtree=0 / bitrate=8500 / ratetol=1.0 / qcomp=0.70 / qpmin=0 / qpmax=69 / qpstep=4 / cplxblur=20.0 / qblur=0.5 / vbv_maxrate=50000 / vbv_bufsize=62500 / nal_hrd=none / filler=0 / ip_ratio=1.30 / pb_ratio=1.30 / aq=1:0.80
Language : English
Default : Yes
Forced : No
Audio #1
ID : 2
Format : AC-3
Format/Info : Audio Coding 3
Mode extension : CM (complete main)
Format settings, Endianness : Big
Codec ID : A_AC3
Duration : 1h 42mn
Bit rate mode : Constant
Bit rate : 192 Kbps
Channel(s) : 2 channels
Channel positions : Front: L R
Sampling rate : 48.0 KHz
Bit depth : 16 bits
Compression mode : Lossy
Stream size : 140 MiB (2%)
Title : MVO - ORT
Language : Russian
Default : Yes
Forced : No
Audio #2
ID : 3
Format : AC-3
Format/Info : Audio Coding 3
Mode extension : CM (complete main)
Format settings, Endianness : Big
Codec ID : A_AC3
Duration : 1h 42mn
Bit rate mode : Constant
Bit rate : 192 Kbps
Channel(s) : 2 channels
Channel positions : Front: L R
Sampling rate : 48.0 KHz
Bit depth : 16 bits
Compression mode : Lossy
Stream size : 140 MiB (2%)
Title : AVO - Vizgunov
Language : Russian
Default : No
Forced : No
Audio #3
ID : 4
Format : DTS
Format/Info : Digital Theater Systems
Mode : 16
Format settings, Endianness : Big
Codec ID : A_DTS
Duration : 1h 42mn
Bit rate mode : Constant
Bit rate : 1 509 Kbps
Channel(s) : 6 channels
Channel positions : Front: L C R, Side: L R, LFE
Sampling rate : 48.0 KHz
Bit depth : 16 bits
Compression mode : Lossy
Stream size : 1.08 GiB (15%)
Title : Original
Language : English
Default : No
Forced : No
Text
ID : 5
Format : UTF-8
Codec ID : S_TEXT/UTF8
Codec ID/Info : UTF-8 Plain Text
Language : English
Default : No
Forced : No
Menu
00:00:00.000 : en:Chapter 01
00:09:01.791 : en:Chapter 02
00:17:30.049 : en:Chapter 03
00:24:49.905 : en:Chapter 04
00:34:26.397 : en:Chapter 05
00:39:22.693 : en:Chapter 06
00:49:58.495 : en:Chapter 07
00:59:44.872 : en:Chapter 08
01:07:30.463 : en:Chapter 09
01:14:14.700 : en:Chapter 10
01:24:57.008 : en:Chapter 11
01:33:24.348 : en:Chapter 12
01:42:14.128 : en:

_________________
Показать сообщения:    

Текущее время: Сегодня 16:57

Часовой пояс: GMT



Вы не можете начинать темы
Вы не можете отвечать на сообщения
Вы не можете редактировать свои сообщения
Вы не можете удалять свои сообщения
Вы не можете голосовать в опросах
Вы не можете прикреплять файлы к сообщениям
Вы не можете скачивать файлы