Важное объявление!
У Нас Все раздачи мультитрекерные, при нуле пиров в релизах, можете смело вставать на закачку!
Статистика раздачи
Размер:     |    Зарегистрирован:     |    Скачан:     |   
Нет
 
     
 
 
Автор Сообщение

HUNTER

Стаж:
5 лет
Сообщений:
68043

Репутация: 101

[+] [-]
Вне форума [Профиль] [ЛС]

Я его слепила-
  • Год выпуска: 2013
  • Страна: Россия
  • Жанр: мелодрама
  • Продолжительность: 01:37:14
  • Перевод: Оригинал
-
  • Режиссер: Михаил Жерневский
  • Сценарий: Алексей Тагушев, Марианна Сокольская
  • Продюсер: Владимир Игнатьев, Александр Кушаев, Юлия Ерешко, ...
  • Композитор: Игорь Щербаков
- -
  • Катя работает консультантом в свадебном салоне. Перед ней проходит череда женихов и невест, — она помогает им сделать самым счастливым главный день в жизни, но, как обычно это бывает, на свою личную жизнь времени ей не хватает.Однажды к Кате обращается подруга Лера — взбалмошная дочка владельца крупной компании. ера влюблена в своего коллегу — обычного программиста Гришу — обаятельного недотёпу. Но препятствием к её счастью является отец — деспот, который, не предавая значения чувствам дочки, сам решил подыскать ей жениха. Лера просит Катю научить Гришу «держать марку» и превратить его в первоклассного жениха, на которого бы папаша обратил внимание. Но Лера недоговаривает: на самом деле Гриша ничего не подозревает о её планах на предстоящую помолвку. Лера уверяет его, что «перемена внешности нужна для того, чтобы, он смог представить свой гениальный бизнес-план на предстоящем совете директоров». Катя соглашается помочь подруге, но на первой же встрече понимает, что Гриша «очень запущенный случай»… Она не подозревает, что встреча с несуразным клиентом очень скоро поставит её перед сложным выбором: дружба с лучшей подругой или собственное личное счастье…
-
  • Рейтинг:
--
  • Качество: SATRip
  • Формат: AVI
  • Видео кодек: DivX 5
  • Аудио кодеk: MP3
  • Видео: 720x400 (16:9), 25.000 fps, DivX 5, 1 870 Kbps
  • Аудио: Аудио #1: MP3, 128 Kbps, 48.0 KHz, 2 ch
-

МедиаИнфо

Код: copyText_writeLink('this.parentNode.parentNode.nextSibling.nextSibling'); General
Complete name : Ja.ego.slepila.avi
Format : AVI
Format/Info : Audio Video Interleave
Format profile : OpenDML
File size : 1.37 GiB
Duration : 1h 37mn
Overall bit rate : 2 015 Kbps
Video
ID : 0
Format : MPEG-4 Visual
Format profile : Simple@L3
Format settings, BVOP : No
Format settings, QPel : No
Format settings, GMC : No warppoints
Format settings, Matrix : Default (H.263)
Codec ID : DX50
Codec ID/Hint : DivX 5
Duration : 1h 37mn
Bit rate : 1 870 Kbps
Width : 720 pixels
Height : 400 pixels
Display aspect ratio : 16:9
Frame rate : 25.000 fps
Color space : YUV
Chroma subsampling : 4:2:0
Bit depth : 8 bits
Scan type : Progressive
Bits/(Pixel*Frame) : 0.260
Stream size : 1.27 GiB (93%)
Writing library : XviD 1.2.1 (UTC 2008-12-04)
Audio
ID : 1
Format : MPEG Audio
Format version : Version 1
Format profile : Layer 3
Mode : Joint stereo
Mode extension : MS Stereo
Codec ID : 55
Codec ID/Hint : MP3
Duration : 28mn 42s
Bit rate mode : Constant
Bit rate : 128 Kbps
Channel(s) : 2 channels
Sampling rate : 48.0 KHz
Stream size : 26.3 MiB (2%)
Alignment : Aligned on interleaves
Interleave, duration : 81 ms (2.03 video frames)
Writing library : LAME3.98.2
- -© Оформление by www.rustorka.com- -Не уходите с раздачи, помогайте раздавать! Скачал сам, помоги скачать другим раздавая скачанное. Помните, что файлы раздачи размещены у других пользователей, таких же качающих или уже скачавших как и Вы, поэтому если кто-то удалит файлы и торрент-файл из клиента, то велика возможность того, что материалов раздачи не останется ни у кого и другие, такие же участники сети не смогут их скачать. Давайте начинать перемены с себя.-

_________________
Показать сообщения:    

Текущее время: Сегодня 22:40

Часовой пояс: GMT



Вы не можете начинать темы
Вы не можете отвечать на сообщения
Вы не можете редактировать свои сообщения
Вы не можете удалять свои сообщения
Вы не можете голосовать в опросах
Вы не можете прикреплять файлы к сообщениям
Вы не можете скачивать файлы