Я – Али / I Am Ali (Клар Левинс / Clare Lewins) [2014, США, Великобритания / Fisheye Films, Passion Pictures, бокс, биографический, документальный, BDRip 720p] MVO (iTunes) + Sub Eng + Original Eng :: Ивановский Торрент трекер
Важное объявление!
У Нас Все раздачи мультитрекерные, при нуле пиров в релизах, можете смело вставать на закачку!
Статистика раздачи
Размер:     |    Зарегистрирован:     |    Скачан:     |   
Нет
 
     
 
 
Автор Сообщение

HUNTER

Стаж:
4 года 11 месяцев
Сообщений:
66052

Репутация: 101

[+] [-]
Вне форума [Профиль] [ЛС]

Я – Али / I Am Ali
Страна: США, Великобритания / Fisheye Films, Passion Pictures
Жанр: бокс, биографический, документальный
Год выпуска: 2014
Продолжительность: 01:51:30
Перевод: Профессиональный (многоголосый закадровый) iTunes
Cубтитры: английские
Оригинальная аудиодорожка: английский
Режиссер: Клар Левинс / Clare Lewins
В ролях: Майк Тайсон, Norman Towns, Вероника Порш Али, Джордж Луис, Джин Килрой, Marvis Frazier, Мухаммед Али, Том Джонс, Джим Браун, Джордж Формен, Рахаман Али
Описание: Документальный фильм, снятый кинематографистами Британии и Англии, содержит уникальные кадры хроники, редкие записи и свежие интервью с теми, кто имеет непосредственное отношение к Мохаммеду Али. Это и его бизнес-менеджер, и первый тренер, и родной брат, и многие другие, с кем судьба сводила Али. Все они поделятся своими историями, открывающими все новые и новые подробности о жизни легенды.
Примечание: ..от себя добавлю, что хоть озвучание и является лицензией, но переведены лишь моменты рассказа о нём, а отрывки из его жизни не переведены, оптимальным вариантом будет смотреть в оригинале с русскими субтитрами которых пока нет в сети...

Тип релиза: BDRip 720p
Контейнер: MKV
Видео: MPEG-4 AVC, 5524 Кбит/с, 1280x720, 23,976 fps
Аудио: Russian: AC3, 48 kHz, 6 ch, 384 kbps
Аудио 2: Eng, DTS, 1510 kb/s (6 ch), 48 kHz
Формат субтитров: softsub (SRT)

MediaInfo

Format : Matroska
Format version : Version 4 / Version 2
File size : 5.90 GiB
Duration : 1h 51mn
Overall bit rate : 7 568 Kbps
Movie name : Tonik
Encoded date : UTC 2014-12-05 11:08:11
Writing application : mkvmerge v7.1.0 ('Good Love') 64bit built on Jul 27 2014 13:06:55
Writing library : libebml v1.3.0 + libmatroska v1.4.1
_STATISTICS_WRITING_APP : mkvmerge v7.1.0 ('Good Love') 64bit built on Jul 27 2014 13:06:55
_STATISTICS_WRITING_DATE_UTC : 2014-12-05 11:08:11
_STATISTICS_TAGS : BPS DURATION NUMBER_OF_FRAMES NUMBER_OF_BYTES
DURATION : 01:51:30.848000000
NUMBER_OF_FRAMES : 209089
NUMBER_OF_BYTES : 321160704
Video
ID : 1
Format : AVC
Format/Info : Advanced Video Codec
Format profile : High@L4.1
Format settings, CABAC : Yes
Format settings, ReFrames : 9 frames
Codec ID : V_MPEG4/ISO/AVC
Duration : 1h 51mn
Bit rate : 5 524 Kbps
Width : 1 280 pixels
Height : 720 pixels
Display aspect ratio : 16:9
Frame rate mode : Constant
Frame rate : 23.976 fps
Color space : YUV
Chroma subsampling : 4:2:0
Bit depth : 8 bits
Scan type : Progressive
Bits/(Pixel*Frame) : 0.250
Stream size : 4.30 GiB (73%)
Writing library : x264 core 142 r2431kMod ac76440
Encoding settings : cabac=1 / ref=9 / deblock=1:-3:-3 / analyse=0x3:0x133 / me=umh / subme=10 / psy=1 / fade_compensate=0.00 / psy_rd=1.05:0.00 / mixed_ref=1 / me_range=24 / chroma_me=1 / trellis=2 / 8x8dct=1 / cqm=0 / deadzone=21,11 / fast_pskip=0 / chroma_qp_offset=-2 / threads=24 / lookahead_threads=4 / sliced_threads=0 / nr=0 / decimate=0 / interlaced=0 / bluray_compat=0 / constrained_intra=0 / fgo=0 / bframes=9 / b_pyramid=2 / b_adapt=2 / b_bias=0 / direct=3 / weightb=1 / open_gop=0 / weightp=2 / keyint=250 / keyint_min=23 / scenecut=40 / intra_refresh=0 / rc=crf / mbtree=0 / crf=16.5000 / qcomp=0.65 / qpmin=0 / qpmax=69 / qpstep=4 / ip_ratio=1.30 / pb_ratio=1.20 / aq=1:0.80
Language : English
Default : Yes
Forced : No
_STATISTICS_WRITING_APP : mkvmerge v7.1.0 ('Good Love') 64bit built on Jul 27 2014 13:06:55
_STATISTICS_WRITING_DATE_UTC : 2014-12-05 11:08:11
_STATISTICS_TAGS : BPS DURATION NUMBER_OF_FRAMES NUMBER_OF_BYTES
DURATION : 01:51:32.561000000
NUMBER_OF_FRAMES : 160461
NUMBER_OF_BYTES : 4744949351
Audio #1
ID : 2
Format : AC-3
Format/Info : Audio Coding 3
Mode extension : CM (complete main)
Format settings, Endianness : Big
Codec ID : A_AC3
Duration : 1h 51mn
Bit rate mode : Constant
Bit rate : 384 Kbps
Channel(s) : 6 channels
Channel positions : Front: L C R, Side: L R, LFE
Sampling rate : 48.0 KHz
Bit depth : 16 bits
Compression mode : Lossy
Stream size : 306 MiB (5%)
Title : iTunes
Language : Russian
Default : Yes
Forced : No
Audio #2
ID : 3
Format : DTS
Format/Info : Digital Theater Systems
Mode : 16
Format settings, Endianness : Big
Codec ID : A_DTS
Duration : 1h 51mn
Bit rate mode : Constant
Bit rate : 1 509 Kbps
Channel(s) : 6 channels
Channel positions : Front: L C R, Side: L R, LFE
Sampling rate : 48.0 KHz
Bit depth : 24 bits
Compression mode : Lossy
Stream size : 1.18 GiB (20%)
Language : English
Default : No
Forced : No
Text #1
ID : 4
Format : UTF-8
Codec ID : S_TEXT/UTF8
Codec ID/Info : UTF-8 Plain Text
Title : Forced
Language : English
Default : No
Forced : No
Text #2
ID : 5
Format : UTF-8
Codec ID : S_TEXT/UTF8
Codec ID/Info : UTF-8 Plain Text
Language : English
Default : No
Forced : No
Text #3
ID : 6
Format : UTF-8
Codec ID : S_TEXT/UTF8
Codec ID/Info : UTF-8 Plain Text
Title : SDH
Language : English
Default : No
Forced : No
Menu
00:00:00.000 : en:00:00:00.000
00:09:19.559 : en:00:09:19.559
00:19:36.384 : en:00:19:36.384
00:28:51.271 : en:00:28:51.271
00:37:27.245 : en:00:37:27.245
00:49:11.615 : en:00:49:11.615
00:56:55.370 : en:00:56:55.370
01:05:28.341 : en:01:05:28.341
01:16:03.100 : en:01:16:03.100
01:23:48.023 : en:01:23:48.023
01:30:08.111 : en:01:30:08.111
01:39:54.822 : en:01:39:54.822

Скриншоты


_________________
Показать сообщения:    

Текущее время: Сегодня 22:37

Часовой пояс: GMT



Вы не можете начинать темы
Вы не можете отвечать на сообщения
Вы не можете редактировать свои сообщения
Вы не можете удалять свои сообщения
Вы не можете голосовать в опросах
Вы не можете прикреплять файлы к сообщениям
Вы не можете скачивать файлы