Важное объявление!
У Нас Все раздачи мультитрекерные, при нуле пиров в релизах, можете смело вставать на закачку!
 
Автор Сообщение

HUNTER

Стаж:
4 года 7 месяцев
Сообщений:
61614

Репутация: 101

[+] [-]
Вне форума [Профиль] [ЛС]

-
Год выпуска: 2013
Страна: Япония
Жанр: комедия, школа
Продолжительность: 12 эп. по 24 мин.
Выпуск: c 06.07.2013 по 21.09.2013-Перевод:
  • русские субтитры от BO3DYX (полные/вспомогательные)
-Режиссер: Саэки Сёдзи
Студия: GAINAX-Описание:
Президент Совета академии Хаконива, юный гений Мэдака Куроками хотела, чтобы ее любили. Для этого выдающаяся во всех отношениях девушка решила осчастливить человечество, начав, естественно, с учеников родной школы. Мэдака установила знаменитый «ящик предложений» своего имени, выбрала в помощники тройку талантливых ребят и приготовилась вести сверстников в светлое будущее. Вот только представления о всеобщем благе у местных молодежных лидеров оказались разными, в итоге академия оказалась в руинах, а до Куроками дошло, что она, в общем-то... ненормальная.
А что, собственно, в этом такого? По замыслу умных, могущественных и морально не стесненных людей (которые в душе тоже, наверное, желают мира на земле), школа Хаконива и есть рассадник ненормальных гениев, собранных со всей Японии. Глядишь, пообщаются они между собой (как пауки в банке), и прямо по Дарвину определится главный монс… пардон, лучший из лучших, человек будущего. Так что, милая Мэдака, все уже решено, и твоя отчаянная борьба только приближает успех генерального Плана. Но столько ни пиши «Взвешено, сочтено, измерено», с женщинами оно никогда не работает!
© Hollow, World Art-Информационные ссылки: AniDB || World Art || MAL-Качество: BDRip
Энкод: Winter - RG Pantheon
Тип видео: без хардсаба, без линковки
Формат: mkv
Видео: x264 (Hi10p), 1280x720, ~3200 Kbps, 23.976 fps
Аудио JAP: Vorbis, 48000Hz, ~256 Kbps, 2ch
Аудио RUS 1: AC3, 48000Hz, ~192 Kbps, 2ch (внешними файлами)
Аудио RUS 2: AC3, 48000Hz, ~192 Kbps, 2ch (внешними файлами)
Аудио RUS 3: AC3, 48000Hz, ~192 Kbps, 2ch (внешними файлами)-

Список озвучек в раздаче

  • одноголосая (жен.) от Persona99 (GetSmart)
  • двухголосая (муж./жен.) от DemonOFmooN & MezIdA (Anifilm)
  • двухголосая (муж./жен.) от Inspector Gadjet & Nika Lenina (AniDub)

Список эпизодов

01. Normal, Special, and Abnormal
02. Sister, Sister, Sister!

Скриншоты


Подробные тех. данные

Общее
Уникальный идентификатор : 195932923526257947740939757103907525501 (0x93674EF6A5FB938FA6CB3F41D97ED37D)
Полное имя : Z:\Anime\720p\Medaka Box - Abnormal [BD] [720p]\[Winter] Medaka Box - Abnormal 02 [BDrip 1280x720 x264 Vorbis].mkv
Формат : Matroska
Версия формата : Version 2
Размер файла : 602 Мбайт
Продолжительность : 23 м.
Режим общего битрейта : Переменный
Общий поток : 3553 Кбит/сек
Дата кодирования : UTC 2014-01-26 12:38:56
Программа кодирования : mkvmerge v2.9.8 ('C'est le bon') built on Aug 13 2009 12:49:06
Библиотека кодирования : libebml v0.7.7 + libmatroska v0.8.1
Видео
Идентификатор : 1
Формат : AVC
Формат/Информация : Advanced Video Codec
Профиль формата : High 10@L4.1
Параметр CABAC формата : Да
Параметр ReFrames формата : 9 кадров
Идентификатор кодека : V_MPEG4/ISO/AVC
Продолжительность : 23 м.
Битрейт : 3226 Кбит/сек
Ширина : 1280 пикселей
Высота : 720 пикселей
Соотношение сторон : 16:9
Режим частоты кадров : Постоянный
Частота кадров : 23,976 кадра/сек
Цветовое пространство : YUV
Субдискретизация насыщенности : 4:2:0
Битовая глубина : 10 бит
Тип развёртки : Прогрессивная
Бит/(Пиксели*Кадры) : 0.146
Размер потока : 547 Мбайт (91%)
Библиотека кодирования : x264 core 132 r2309 3b1f1f7
Настройки программы : cabac=1 / ref=9 / deblock=1:-2:-2 / analyse=0x3:0x133 / me=umh / subme=9 / psy=1 / psy_rd=0.90:0.00 / mixed_ref=1 / me_range=24 / chroma_me=1 / trellis=2 / 8x8dct=1 / cqm=0 / deadzone=21,11 / fast_pskip=1 / chroma_qp_offset=-2 / threads=12 / lookahead_threads=2 / sliced_threads=0 / nr=0 / decimate=0 / interlaced=0 / bluray_compat=0 / constrained_intra=0 / bframes=8 / b_pyramid=2 / b_adapt=2 / b_bias=0 / direct=1 / weightb=1 / open_gop=0 / weightp=2 / keyint=250 / keyint_min=23 / scenecut=40 / intra_refresh=0 / rc=crf / mbtree=0 / crf=15.5 / qcomp=0.70 / qpmin=9 / qpmax=40 / qpstep=4 / ip_ratio=1.40 / pb_ratio=1.30 / aq=1:0.90
Default : Нет
Forced : Нет
Аудио
Идентификатор : 2
Формат : Vorbis
Параметр Floor формата : 1
Идентификатор кодека : A_VORBIS
Продолжительность : 23 м.
Вид битрейта : Переменный
Битрейт : 256 Кбит/сек
Каналы : 2 канала
Частота : 48,0 КГц
Метод сжатия : С потерями
Размер потока : 43,4 Мбайт (7%)
Библиотека кодирования : libVorbis (Schaufenugget) (20101101 (Schaufenugget))
Язык : Japanese
Default : Да
Forced : Нет
- -

Информация о релизе

  • Выбор видео, перевода, озвучки, а также типа сборки материала осуществляется релизером и не подлежит обсуждению. Если вы считаете, что раздаваемый материал противоречит правилам раздела "Аниме" rutracker.org, сообщите об этом одному из модераторов раздела.
  • В случае появления нового материала или же лучшего по качеству материала релизер оставляет за собой право обновить раздачу. В этом случае вам необходимо ознакомиться с изменениями (добавлениями) и перекачать торрент.
  • Данный релиз предназначен для просмотра на ПК. Воспроизведение на иных проигрывателях не гарантируется. Для просмотра рекомендуется Media Player Classic с установленным пакетом кодеков K-Lite.
  • Данный релиз содержит 10-битное видео (Hi10p). Для корректного воспроизведения обязательно используйте кодеки, поддерживающие 10-битное видео.
    Обсудить частные случаи проблем с воспроизведением и получить дополнительную информацию можно здесь.

  • Данный релиз предназначен для просмотра с внешними субтитрами и внешними звуковыми дорожками.
    • Для просмотра с внешней звуковой дорожкой нужно:
      перекинуть файлы .mka из папки "RUS Sound [<автор(ы) озвучки>]" в одну папку с видео и переключить звуковую дорожку в плеере при просмотре. Как это сделать в разных плеерах подробно описано здесь.

    • Для просмотра с субтитрами нужно:
      перекинуть файлы .ass из папки "RUS Subtitles [<автор(ы) перевода>]" в одну папку с видео - плеер подгрузит их автоматически при открытии видео.
  • Если у вас возникли проблемы с просмотром, не связанные с описанным выше, сообщите о них автору раздачи посредством сообщения в теме или ЛС Aglenn.

_________________
Показать сообщения:    

Текущее время: Сегодня 11:33

Часовой пояс: GMT



Вы не можете начинать темы
Вы не можете отвечать на сообщения
Вы не можете редактировать свои сообщения
Вы не можете удалять свои сообщения
Вы не можете голосовать в опросах
Вы не можете прикреплять файлы к сообщениям
Вы не можете скачивать файлы
Наши партнеры: интернет магазин Ивановского трикотажа textilla.ru