Важное объявление!
У Нас Все раздачи мультитрекерные, при нуле пиров в релизах, можете смело вставать на закачку!
 
Автор Сообщение

HUNTER

Стаж:
4 года 9 месяцев
Сообщений:
65021

Репутация: 101

[+] [-]
Вне форума [Профиль] [ЛС]

Ярость / The Fury
Страна: США
Жанр: ужасы, фантастика, триллер, драма
Год выпуска: 1978
Продолжительность: 01:57:58
Перевод#1: Профессиональный (многоголосый закадровый) | R5
Перевод#2: Профессиональный (двухголосый закадровый) | НТВ+
Перевод#3: Авторский (одноголосый закадровый), А. Михалев
Перевод#4: Авторский (одноголосый закадровый), А. Гаврилов
Перевод#5: Авторский (одноголосый закадровый), Л. Володарский
Cубтитры: русские, английские
Оригинальная аудиодорожка: английский
Режиссер: Брайан Де Пальма / Brian De Palma
В ролях: Кирк Дуглас, Джон Кассаветис, Кэрри Снодгресс, Чарльз Дёрнинг, Эми Ирвинг, Фиона Льюис, Эндрю Стивенс, Кэрол Ив Россен, Рутаня Олда, Джойс Истон
Описание: Секретное американское агентство проводит эксперименты с детьми, обладающими повышенными телепатическими способностями, чтобы впоследствии использовать их в военных целях
Бывший агент ЦРУ Питер Сандза (Кирк Дуглас), спокойно отдыхает со своим сыном Робином на Ближнем Востоке, когда мальчика неожиданно похищают. Чтобы выйти на его след, Питер обращается за помощью к девушке-экстрасенсу Джиллиан Беллевер. То, что им удается узнать, поначалу никак не укладывается у Питера в голове…

Тип релиза: BDRip 720p (от EbP) | sample
Контейнер: MKV
Видео кодек: x264
Видео: AVC 1280x698 (1.85:1), 23.976 fps, ~18650 Kbps, 0.87 bit/pixel
Аудио #1: Russian AC3 6ch 48kHz 448Kbps | MVO R5
Аудио #2: Russian AC3 2ch 48kHz 192Kbps | DVO НТВ+
Аудио #3: Russian AC3 3.1ch 48kHz 640Kbps | AVO Михалев
Аудио #4: Russian AC3 2ch 48kHz 192Kbps | AVO Гаврилов
Аудио #5: Russian AC3 2ch 48kHz 192Kbps | AVO Володарский
Аудио #6: English AC3 4.0ch 48kHz 640Kbps | Original
Формат субтитров: softsub (SRT)
Главы: есть

Доп. информация

Исходник - британский трансфер, с другим наполнением кадра и цветопередачей, нежели имеющийся на HDTRACKER штатовский
R5 перетянута заново, без голосов во всех каналах как на HDTRACKER
Михалев и Володарский с HDTRACKER, НТВ+ и сабы отсюда, Гаврилов отсюда, всем спасибо
За работу над дорогами большое спасибо Linger babe

MediaInfo | x264

x264

x264 [info]: frame I:1023 Avg QP:15.19 size:204645
x264 [info]: frame P:31475 Avg QP:17.32 size:144201
x264 [info]: frame B:137191 Avg QP:19.43 size: 85664
x264 [info]: consecutive B-frames: 1.2% 1.3% 4.0% 15.9% 13.3% 33.7% 10.5% 7.8% 4.3% 3.9% 2.9% 1.3%
encoded 169689 frames, 1.575 fps, 18651.21 kb/s
General
Complete name : D:\...\The.Fury.1978.UK.720p.BluRay.x264.Rus.Eng-EbP.mkv
Format : Matroska
Format version : Version 2
File size : 17.3 GiB
Duration : 1h 57mn
Overall bit rate : 21.0 Mbps
Movie name : The.Fury.1978.UK.720p.BluRay.x264.Rus.Eng-EbP
Encoded date : UTC 2013-12-19 13:19:23
Writing application : mkvmerge v6.5.0 ('Isn't she lovely') built on Oct 20 2013 12:50:05
Writing library : libebml v1.3.0 + libmatroska v1.4.1
Video
ID : 1
Format : AVC
Format/Info : Advanced Video Codec
Format profile : High@L4.1
Format settings, CABAC : Yes
Format settings, ReFrames : 9 frames
Codec ID : V_MPEG4/ISO/AVC
Bit rate : 18.7 Mbps
Width : 1 280 pixels
Height : 698 pixels
Display aspect ratio : 1.85:1
Frame rate mode : Variable
Original frame rate : 23.976 fps
Color space : YUV
Chroma subsampling : 4:2:0
Bit depth : 8 bits
Scan type : Progressive
Bits/(Pixel*Frame) : 0.871
Title : The Fury (1978) UK
Writing library : x264 core 138 r2359+704+48 3f879a0 tMod [8-bit@all X86_64]
Encoding settings : cabac=1 / ref=9 / deblock=1:-3:-3 / analyse=0x3:0x133 / me=tesa / subme=11 / psy=1 / fade_compensate=0.00 / psy_rd=1.08:0.05 / mixed_ref=1 / me_range=32 / chroma_me=1 / trellis=2 / 8x8dct=1 / cqm=0 / deadzone=21,11 / fast_pskip=0 / chroma_qp_offset=-3 / threads=12 / lookahead_threads=3 / sliced_threads=0 / nr=0 / decimate=0 / interlaced=0 / bluray_compat=0 / constrained_intra=0 / fgo=0 / bframes=11 / b_pyramid=2 / b_adapt=2 / b_bias=0 / direct=3 / weightb=1 / open_gop=0 / weightp=2 / keyint=250 / keyint_min=23 / scenecut=40 / intra_refresh=0 / rc=2pass / mbtree=0 / bitrate=18658 / ratetol=1.0 / qcomp=0.75 / qpmin=0:0:0 / qpmax=69:69:69 / qpstep=4 / cplxblur=20.0 / qblur=0.5 / ip_ratio=1.40 / pb_ratio=1.30 / aq=3:0.60 / aq-sensitivity=10.00 / aq-factor=1.00:1.00:1.00 / aq2=0 / aq3=0
Language : English
Default : Yes
Forced : No
Matrix coefficients : BT.709
Audio #1
ID : 2
Format : AC-3
Format/Info : Audio Coding 3
Mode extension : CM (complete main)
Format settings, Endianness : Big
Codec ID : A_AC3
Duration : 1h 57mn
Bit rate mode : Constant
Bit rate : 448 Kbps
Channel(s) : 6 channels
Channel positions : Front: L C R, Side: L R, LFE
Sampling rate : 48.0 KHz
Bit depth : 16 bits
Compression mode : Lossy
Stream size : 378 MiB (2%)
Title : MVO R5
Language : Russian
Default : Yes
Forced : No
Audio #2
ID : 3
Format : AC-3
Format/Info : Audio Coding 3
Mode extension : CM (complete main)
Format settings, Endianness : Big
Codec ID : A_AC3
Duration : 1h 57mn
Bit rate mode : Constant
Bit rate : 192 Kbps
Channel(s) : 2 channels
Channel positions : Front: L R
Sampling rate : 48.0 KHz
Bit depth : 16 bits
Compression mode : Lossy
Stream size : 162 MiB (1%)
Title : DVO NTV+
Language : Russian
Default : No
Forced : No
Audio #3
ID : 4
Format : AC-3
Format/Info : Audio Coding 3
Mode extension : CM (complete main)
Format settings, Endianness : Big
Codec ID : A_AC3
Duration : 1h 57mn
Bit rate mode : Constant
Bit rate : 640 Kbps
Channel(s) : 4 channels
Channel positions : Front: L C R, LFE
Sampling rate : 48.0 KHz
Bit depth : 16 bits
Compression mode : Lossy
Stream size : 540 MiB (3%)
Title : AVO Mikhalev
Language : Russian
Default : No
Forced : No
Audio #4
ID : 5
Format : AC-3
Format/Info : Audio Coding 3
Mode extension : CM (complete main)
Format settings, Endianness : Big
Codec ID : A_AC3
Duration : 1h 57mn
Bit rate mode : Constant
Bit rate : 192 Kbps
Channel(s) : 2 channels
Channel positions : Front: L R
Sampling rate : 48.0 KHz
Bit depth : 16 bits
Compression mode : Lossy
Stream size : 162 MiB (1%)
Title : AVO Gavrilov
Language : Russian
Default : No
Forced : No
Audio #5
ID : 6
Format : AC-3
Format/Info : Audio Coding 3
Mode extension : CM (complete main)
Format settings, Endianness : Big
Codec ID : A_AC3
Duration : 1h 57mn
Bit rate mode : Constant
Bit rate : 192 Kbps
Channel(s) : 2 channels
Channel positions : Front: L R
Sampling rate : 48.0 KHz
Bit depth : 16 bits
Compression mode : Lossy
Stream size : 162 MiB (1%)
Title : AVO Volodarsky
Language : Russian
Default : No
Forced : No
Audio #6
ID : 7
Format : AC-3
Format/Info : Audio Coding 3
Mode extension : CM (complete main)
Format settings, Endianness : Big
Codec ID : A_AC3
Duration : 1h 57mn
Bit rate mode : Constant
Bit rate : 640 Kbps
Channel(s) : 4 channels
Channel positions : Front: L C R, Side: C
Sampling rate : 48.0 KHz
Bit depth : 16 bits
Compression mode : Lossy
Stream size : 540 MiB (3%)
Title : Original
Language : English
Default : No
Forced : No
Text #1
ID : 8
Format : UTF-8
Codec ID : S_TEXT/UTF8
Codec ID/Info : UTF-8 Plain Text
Language : Russian
Default : No
Forced : No
Text #2
ID : 9
Format : UTF-8
Codec ID : S_TEXT/UTF8
Codec ID/Info : UTF-8 Plain Text
Language : English
Default : No
Forced : No
Menu
00:00:00.000 : en:00:00:00.000
00:08:56.619 : en:00:08:56.619
00:23:50.262 : en:00:23:50.262
00:35:01.641 : en:00:35:01.641
00:41:23.564 : en:00:41:23.564
00:50:42.581 : en:00:50:42.581
00:59:52.339 : en:00:59:52.339
01:09:30.416 : en:01:09:30.416
01:21:52.282 : en:01:21:52.282
01:39:43.728 : en:01:39:43.728
01:49:58.091 : en:01:49:58.091
01:55:10.904 : en:01:55:10.904

Скриншоты

source vs EbP UK vs DON US




_________________
Показать сообщения:    

Текущее время: Сегодня 12:58

Часовой пояс: GMT



Вы не можете начинать темы
Вы не можете отвечать на сообщения
Вы не можете редактировать свои сообщения
Вы не можете удалять свои сообщения
Вы не можете голосовать в опросах
Вы не можете прикреплять файлы к сообщениям
Вы не можете скачивать файлы