Ярослав. Тысячу лет назад (Дмитрий Коробкин) [2010 г., Боевик, Биография, Драма, BDRip 720p] :: Ивановский Торрент трекер
Важное объявление!
У Нас Все раздачи мультитрекерные, при нуле пиров в релизах, можете смело вставать на закачку!
Статистика раздачи
Размер:     |    Зарегистрирован:     |    Скачан:     |   
Нет
 
     
 
 
Автор Сообщение

HUNTER

Стаж:
4 года 11 месяцев
Сообщений:
66077

Репутация: 101

[+] [-]
Вне форума [Профиль] [ЛС]

Ярослав. Тысячу лет назад
Год выпуска: 2010
Страна: Россия
Жанр: Боевик, Биография, Драма
Продолжительность: 01:43:27
Русские субтитры: нет
Навигация по главам: есть
Режиссер: Дмитрий Коробкин
В ролях: Александр Ивашкевич (князь Ярослав), Алексей Кравченко (Харальд), Светлана Чуйкина (Райда), Валерий Золотухин (Чурила), Виктор Вержбицкий (Святозар), Елена Плаксина (Желана), Борис Токарев (Мелей), Владимир Антоник (Вышата), Юрий Ваксман (Будый), Павел Хрулев (Венд), Константин Милованов (Будимир), Дмитрий Уросов (1-й воин), Денис Ясик (2-й воин), Кирилл Болтаев (Невзор), Константин Адаев, Роман Курцын (Ставко), Евгений Стычкин ...
Описание: Киевская Русь, начало второго тысячелетия. Ростовские земли полыхают от межплеменных войн. В лесах, по дорогам и рекам хозяйничают разбойничьи ватаги. Разбойники продают людей Хазарам, которые сплавляют рабов в низовья Волги для перепродажи.
Чтобы остановить работорговлю молодому Князю Ярославу предстоит объединить земли и народы Ростова. Победить врага можно только преодолев предубеждения и остановив религиозные и этнические конфликты внутри княжества.
На месте уничтоженного разбойничьего логова Ярослав основывает город, который позже люди назовут его именем.
-Доп. информация:


слоган: «Millenium ago Russian land»
сценарий: Марина Кошкина, Наталья Назарова
продюсер: Вадим Быркин, Сурков Олег
оператор: Дмитрий Коробкин
композитор: Андрей Комиссаров, Глеб Матвейчук, Сергей Трофимов
монтаж: Дмитрий Чистяков
бюджет: $5 000 000
сборы в России: $1 558 672
зрители: Россия 290.1 тыс.
премьера (РФ): 14 октября 2010, «Фокс»
релиз на Blu-Ray: 16 декабря 2010, «Флагман-Трейд», ...
релиз на DVD: 10 ноября 2010, «CD Land», ...
-Качество: BDRip 720p
Формат: MKV
Видео: 1280x544 (2.35:1) at 23.976 fps, MPEG-4 part 10 (AVC), 0.454 bpp, ~ 7 582 kbps avg
Аудио: DTS, 48 KHz, 1152 kbps, CBR, 6 Ch (Front: L C R, Side: L R, LFE) 24 bit
Размер: 6 774 993 889 byte (6 616 204 Kb) (6.30 Gb)

Знаете ли вы, что...

Фильм снят к 1000-летию города Ярославля.

MediaInfo

General
Complete name :Yaroslav.1000.Let.Nazad.2010.BDRip.720p.x264.DTS.Rus.mkv
Format : Matroska
File size : 6.31 GiB
Duration : 1h 43mn
Overall bit rate : 8 704 Kbps
Movie name : Ярослав. 1000 лет назад :: 2010 :: BDRip by duk
Encoded date : UTC 2011-01-28 17:40:44
Writing application : mkvmerge v4.4.0 ('Die Wiederkehr') сборка от Oct 31 2010 21:52:48
Writing library : libebml v1.0.0 + libmatroska v1.0.0
Video
ID : 1
Format : AVC
Format/Info : Advanced Video Codec
Format profile : High@L4.1
Format settings, CABAC : Yes
Format settings, ReFrames : 12 frames
Codec ID : V_MPEG4/ISO/AVC
Duration : 1h 43mn
Bit rate : 7 582 Kbps
Width : 1 280 pixels
Height : 544 pixels
Display aspect ratio : 2.35:1
Frame rate : 23.976 fps
Color space : YUV
Chroma subsampling : 4:2:0
Bit depth : 8 bits
Scan type : Progressive
Bits/(Pixel*Frame) : 0.454
Stream size : 5.35 GiB (85%)
Title : 1280x544@23.976 MPEG-4 part 10 (AVC)
Writing library : x264 core 112 r1867 22bfd31
Encoding settings : cabac=1 / ref=12 / deblock=1:-3:-3 / analyse=0x3:0x133 / me=esa / subme=10 / psy=1 / psy_rd=1.00:0.05 / mixed_ref=1 / me_range=32 / chroma_me=1 / trellis=2 / 8x8dct=1 / cqm=0 / deadzone=21,11 / fast_pskip=0 / chroma_qp_offset=-3 / threads=6 / sliced_threads=0 / nr=0 / decimate=1 / interlaced=0 / constrained_intra=0 / bframes=11 / b_pyramid=2 / b_adapt=2 / b_bias=0 / direct=3 / weightb=1 / open_gop=0 / weightp=2 / keyint=250 / keyint_min=23 / scenecut=40 / intra_refresh=0 / rc_lookahead=80 / rc=2pass / mbtree=1 / bitrate=7582 / ratetol=3.0 / qcomp=0.60 / qpmin=10 / qpmax=41 / qpstep=4 / cplxblur=20.0 / qblur=0.5 / ip_ratio=1.40 / aq=1:1.00
Language : Russian
Color primaries : BT.709-5, BT.1361, IEC 61966-2-4, SMPTE RP177
Transfer characteristics : BT.709-5, BT.1361
Matrix coefficients : BT.709-5, BT.1361, IEC 61966-2-4 709, SMPTE RP177
Audio
ID : 2
Format : DTS
Format/Info : Digital Theater Systems
Codec ID : A_DTS
Duration : 1h 43mn
Bit rate mode : Constant
Bit rate : 1 152 Kbps
Channel(s) : 6 channels
Channel positions : Front: L C R, Side: L R, LFE
Sampling rate : 48.0 KHz
Bit depth : 24 bits
Compression mode : Lossy
Stream size : 855 MiB (13%)
Title : DTS, 48 KHz, 1152 kbps, CBR, 6 Ch (Front: L C R, Side: L R, LFE) 24 bit
Language : Russian
Menu
00:00:00.000 : en:00:00:00.000
00:06:12.914 : en:00:06:12.914
00:11:59.510 : en:00:11:59.510
00:18:21.058 : en:00:18:21.058
00:24:29.009 : en:00:24:29.009
00:30:28.660 : en:00:30:28.660
00:35:56.529 : en:00:35:56.529
00:41:18.393 : en:00:41:18.393
00:46:58.107 : en:00:46:58.107
00:51:21.954 : en:00:51:21.954
00:56:18.709 : en:00:56:18.709
01:01:55.003 : en:01:01:55.003
01:08:03.538 : en:01:08:03.538
01:13:25.359 : en:01:13:25.359
01:21:15.204 : en:01:21:15.204
01:28:18.168 : en:01:28:18.168
01:33:57.632 : en:01:33:57.632
01:39:01.519 : en:01:39:01.519

x264 2nd pass log

---[NoImage] avs [info]: 1280x544p 1:1 @ 24000/1001 fps (cfr)
---[NoImage] x264 [info]: using SAR=1/1
---[NoImage] x264 [info]: using cpu capabilities: MMX2 SSE2Fast FastShuffle SSEMisalign LZCNT
---[NoImage] x264 [info]: profile High, level 4.1
---[NoImage]
---[NoImage] x264 [info]: frame I:1117 Avg QP:16.16 size:166340
---[NoImage] x264 [info]: frame P:31485 Avg QP:19.56 size: 68414
---[NoImage] x264 [info]: frame B:116219 Avg QP:22.25 size: 30431
---[NoImage] x264 [info]: consecutive B-frames: 1.9% 1.9% 7.4% 23.3% 15.7% 35.2% 6.1% 2.5% 2.4% 1.8% 1.3% 0.6%
---[NoImage] x264 [info]: mb I I16..4: 7.2% 70.4% 22.4%
---[NoImage] x264 [info]: mb P I16..4: 0.6% 22.8% 2.0% P16..4: 33.0% 27.9% 7.2% 1.0% 0.6% skip: 4.9%
---[NoImage] x264 [info]: mb B I16..4: 0.0% 5.5% 0.2% B16..8: 38.9% 17.2% 7.3% direct: 9.4% skip:21.4% L0:43.9% L1:41.8% BI:14.3%
---[NoImage] x264 [info]: 8x8 transform intra:90.8% inter:62.7%
---[NoImage] x264 [info]: direct mvs spatial:98.8% temporal:1.2%
---[NoImage] x264 [info]: coded y,uvDC,uvAC intra: 97.5% 90.8% 70.3% inter: 52.3% 37.3% 9.8%
---[NoImage] x264 [info]: i16 v,h,dc,p: 36% 10% 14% 40%
---[NoImage] x264 [info]: i8 v,h,dc,ddl,ddr,vr,hd,vl,hu: 7% 7% 11% 10% 14% 13% 13% 11% 13%
---[NoImage] x264 [info]: i4 v,h,dc,ddl,ddr,vr,hd,vl,hu: 8% 6% 4% 9% 16% 15% 15% 12% 14%
---[NoImage] x264 [info]: i8c dc,h,v,p: 49% 15% 15% 21%
---[NoImage] x264 [info]: Weighted P-Frames: Y:7.9% UV:6.2%
---[NoImage] x264 [info]: ref P L0: 46.1% 8.6% 17.6% 8.1% 5.6% 4.1% 3.2% 2.0% 1.6% 1.3% 1.0% 0.8% 0.1% 0.0%
---[NoImage] x264 [info]: ref B L0: 70.2% 13.3% 6.3% 3.2% 2.2% 1.7% 1.3% 0.7% 0.6% 0.3% 0.1%
---[NoImage] x264 [info]: ref B L1: 92.6% 7.4%
---[NoImage] x264 [info]: kb/s:7573.83
---[NoImage] encoded 148821 frames, 1.14 fps, 7573.83 kb/s
--[Information] Final statistics
---[Information] Video Bitrate Desired: 7582 kbit/s
---[Information] Video Bitrate Obtained (approximate): 7575 kbit/s

Скриншоты

Сравнение

http://rutracker.org/forum/viewtopic.php?t=3361480---------------Blu-Ray Disc----------------------BDRip (Мосенька)---------------BDRip (duk-torrent)--------




_________________
Показать сообщения:    

Текущее время: Сегодня 08:59

Часовой пояс: GMT



Вы не можете начинать темы
Вы не можете отвечать на сообщения
Вы не можете редактировать свои сообщения
Вы не можете удалять свои сообщения
Вы не можете голосовать в опросах
Вы не можете прикреплять файлы к сообщениям
Вы не можете скачивать файлы