Ивановский Торрент трекер
Яндекс.Погода
 

[Цитировать]
димитри37

Ярослав Мудрый (2 серии)
Жанр: история, мелодрама, приключения
Год выпуска: 1981
Продолжительность: 01:07:05 + 01:13:35
Режиссёр: Григорий Кохан
В ролях: Юрий Муравицкий, Пётр Вельяминов, Людмила Смородина, Константин Степанков, Олег Драч, Николай Белый, Николай Бабенко, Леонид Филатов, Всеволод Гаврилов (озвучание - Павел Морозенко), Борис Ставицкий, Татьяна Кондырева (Чернядьева), Ольга Белявская, Андрей Харитонов, Николай Гринько, Вацлав Дворжецкий, Лембит Ульфсак, Александр Быструшкин, Виктор Шульгин, Александр Карин, Алексей Колесник, Игорь Слободской, Николай Заднепровский, Николай Дупак, Бимболат (Бибо) Ватаев, Раиса Недашковская, Марк Гресь, Виктор МаляревичОсип (Иосиф) Найдук, Геннадий Четвериков, Олег Фёдоров, Олег Федулов
Описание: Первая половина XI столетия. После смерти крестителя Руси, князя Владимира Святославича (из рода Рюриковичей) киевский престол завоевал один из его сыновей — Ярослав Владимирович — сын Владимира и полоцкой княжны Рогнеды Рогволодовны. Фильм — о борьбе, которую вел новый киевский князь с внутренними и внешними врагами Руси. Параллельно развивается сюжет драматической любви Ярослава Мудрого к простой девушке Любаве.
Доп. информация: Премьера - 26 апреля 1982 года.

Исходник (DVD-9)
Качество видео: DVDRip-AVC
Формат видео: MKV
Видео: AVC (H.264), 700x574@996x574 (16:9), 25 fps, 2001 kbps
Аудио: 48 kHz, АC3, 2 ch, 224 kbps

MediaInfo

1-я серия

Общее
Уникальный идентификатор : 207543753237108440921445539396228509975 (0x9C237910D351C7D2AFBD8AF333687117)
Полное имя : D:\Фильмы\JAROSLAV_MUDRYI\01. Ярослав Мудрый (1).mkv
Формат : Matroska
Версия формата : Version 4 / Version 2
Размер файла : 1,04 Гбайт
Продолжительность : 1 ч. 7 м.
Общий поток : 2227 Кбит/сек
Дата кодирования : UTC 2013-04-08 20:54:21
Программа кодирования : mkvmerge v6.1.0 ('Old Devil') built on Mar 2 2013 14:32:37
Библиотека кодирования : libebml v1.3.0 + libmatroska v1.4.0
Видео
Идентификатор : 1
Формат : AVC
Формат/Информация : Advanced Video Codec
Профиль формата : High@L4.1
Параметр CABAC формата : Да
Параметр ReFrames формата : 5 кадров
Идентификатор кодека : V_MPEG4/ISO/AVC
Продолжительность : 1 ч. 7 м.
Битрейт : 2001 Кбит/сек
Ширина : 700 пикселей
Высота : 574 пикселя
Соотношение сторон : 16:9
Соотношение сторон в оригинале : 16:9
Частота кадров : 25,000 кадров/сек
Цветовое пространство : YUV
Субдискретизация насыщенности : 4:2:0
Битовая глубина : 8 бит
Тип развёртки : Прогрессивная
Бит/(Пиксели*Кадры) : 0.199
Размер потока : 940 Мбайт (88%)
Библиотека кодирования : x264 core 130 r2273 b3065e6
Настройки программы : cabac=1 / ref=5 / deblock=1:-1:-1 / analyse=0x3:0x133 / me=umh / subme=9 / psy=1 / psy_rd=1.00:0.00 / mixed_ref=1 / me_range=32 / chroma_me=1 / trellis=2 / 8x8dct=1 / cqm=0 / deadzone=21,11 / fast_pskip=1 / chroma_qp_offset=-2 / threads=3 / lookahead_threads=1 / sliced_threads=0 / nr=0 / decimate=1 / interlaced=0 / bluray_compat=0 / constrained_intra=0 / bframes=9 / b_pyramid=2 / b_adapt=2 / b_bias=0 / direct=3 / weightb=1 / open_gop=0 / weightp=2 / keyint=250 / keyint_min=25 / scenecut=40 / intra_refresh=0 / rc_lookahead=60 / rc=2pass / mbtree=1 / bitrate=2001 / ratetol=1.0 / qcomp=0.60 / qpmin=0 / qpmax=69 / qpstep=4 / cplxblur=20.0 / qblur=0.5 / ip_ratio=1.40 / aq=1:1.00
Язык : English
Default : Да
Forced : Нет
Аудио
Идентификатор : 2
Формат : AC-3
Формат/Информация : Audio Coding 3
Расширение режима : CM (complete main)
Параметр Endianness формата : Big
Идентификатор кодека : A_AC3
Продолжительность : 1 ч. 7 м.
Вид битрейта : Постоянный
Битрейт : 224 Кбит/сек
Каналы : 2 канала
Расположение каналов : Front: L R
Частота : 48,0 КГц
Битовая глубина : 16 бит
Метод сжатия : С потерями
Размер потока : 107 Мбайт (10%)
Default : Да
Forced : Нет

2-я серия

Общее
Уникальный идентификатор : 215755699212337827636901202804975610219 (0xA2510942FEEC65179539A6830178296B)
Полное имя : D:\Фильмы\JAROSLAV_MUDRYI\02. Ярослав Мудрый (1).mkv
Формат : Matroska
Версия формата : Version 4 / Version 2
Размер файла : 1,14 Гбайт
Продолжительность : 1 ч. 13 м.
Общий поток : 2227 Кбит/сек
Дата кодирования : UTC 2013-04-10 09:27:56
Программа кодирования : mkvmerge v6.1.0 ('Old Devil') built on Mar 2 2013 14:32:37
Библиотека кодирования : libebml v1.3.0 + libmatroska v1.4.0
Видео
Идентификатор : 1
Формат : AVC
Формат/Информация : Advanced Video Codec
Профиль формата : High@L4.1
Параметр CABAC формата : Да
Параметр ReFrames формата : 5 кадров
Идентификатор кодека : V_MPEG4/ISO/AVC
Продолжительность : 1 ч. 13 м.
Битрейт : 2001 Кбит/сек
Ширина : 700 пикселей
Высота : 576 пикселей
Соотношение сторон : 16:9
Частота кадров : 25,000 кадров/сек
Цветовое пространство : YUV
Субдискретизация насыщенности : 4:2:0
Битовая глубина : 8 бит
Тип развёртки : Прогрессивная
Бит/(Пиксели*Кадры) : 0.199
Размер потока : 1,01 Гбайт (88%)
Библиотека кодирования : x264 core 130 r2273 b3065e6
Настройки программы : cabac=1 / ref=5 / deblock=1:-1:-1 / analyse=0x3:0x133 / me=umh / subme=9 / psy=1 / psy_rd=1.00:0.00 / mixed_ref=1 / me_range=32 / chroma_me=1 / trellis=2 / 8x8dct=1 / cqm=0 / deadzone=21,11 / fast_pskip=1 / chroma_qp_offset=-2 / threads=3 / lookahead_threads=1 / sliced_threads=0 / nr=0 / decimate=1 / interlaced=0 / bluray_compat=0 / constrained_intra=0 / bframes=9 / b_pyramid=2 / b_adapt=2 / b_bias=0 / direct=3 / weightb=1 / open_gop=0 / weightp=2 / keyint=250 / keyint_min=25 / scenecut=40 / intra_refresh=0 / rc_lookahead=60 / rc=2pass / mbtree=1 / bitrate=2001 / ratetol=1.0 / qcomp=0.60 / qpmin=0 / qpmax=69 / qpstep=4 / cplxblur=20.0 / qblur=0.5 / ip_ratio=1.40 / aq=1:1.00
Язык : English
Default : Да
Forced : Нет
Аудио
Идентификатор : 2
Формат : AC-3
Формат/Информация : Audio Coding 3
Расширение режима : CM (complete main)
Параметр Endianness формата : Big
Идентификатор кодека : A_AC3
Продолжительность : 1 ч. 13 м.
Вид битрейта : Постоянный
Битрейт : 224 Кбит/сек
Каналы : 2 канала
Расположение каналов : Front: L R
Частота : 48,0 КГц
Битовая глубина : 16 бит
Метод сжатия : С потерями
Размер потока : 118 Мбайт (10%)
Default : Да
Forced : Нет

Скриншоты

1-я серия

2-я серия

Показать сообщения:    

Текущее время: 25-Сен 07:08

Часовой пояс: UTC - 1


Вы не можете начинать темы
Вы не можете отвечать на сообщения
Вы не можете редактировать свои сообщения
Вы не можете удалять свои сообщения
Вы не можете голосовать в опросах
Вы не можете прикреплять файлы к сообщениям
Вы не можете скачивать файлы

!ВНИМАНИЕ!
Сайт не предоставляет электронные версии произведений, а занимается лишь коллекционированием и каталогизацией ссылок, присылаемых и публикуемых на форуме нашими читателями. Если вы являетесь правообладателем какого-либо представленного материала и не желаете, чтобы ссылка на него находилась в нашем каталоге, свяжитесь с нами, и мы незамедлительно удалим ее. Файлы для обмена на трекере предоставлены пользователями сайта, и администрация не несет ответственности за их содержание. Просьба не заливать файлы, защищенные авторскими правами, а также файлы нелегального содержания!