Ивановский Торрент трекер
Яндекс.Погода
 

[Цитировать]
димитри37


Ялта-45
Год выпуска: 2012
Производство: "Централ Партнершип", ООО "Арт-Базар Синема"
Жанр: боевик, военный фильм, история
Продолжительность: 4 х 00:49:00
Режиссёр: Тигран Кеосаян
В ролях: Александр Голубев, Евгений Миллер, Максим Матвеев, Михаил Евланов, Алена Хмельницкая, Александр Феклистов, Александр Коршунов, Борис Каморзин, Сергей Деревянко, Борис Талах, Владимир Капустин (II), Алексей Девотченко, Иван Добронравов, Виктор Добронравов, Кристина Бабушкина, Николай Козак, Игорь Савочкин, Сергей Фролов, Егор (Георгий) Сальников, Екатерина Кузнецова (IV), Сергей Сипливый, Юрий Яковлев-Суханов
Описание:Январь 1945 года. В Ялте полным ходом идет подготовка к встрече лидеров антигитлеровской коалиции: Сталина, Рузвельта и Черчилля. Спецслужбы союзников работают сообща, чтобы обеспечить первым лицам полную безопасность. Тревожатся они не зря: в городе действительно затаилась группа диверсантов, планирующая теракт. На их след выходят контрразведчик Турок, местный следователь Жора Макаров и майор американской разведки Джон Уилби.
Качество: DVDRip
Формат: AVI
Видео кодек: XviD
Аудио кодек: AC3
Видео: 720x400 (1.80:1), 25 fps, XviD build 50 ~1853 kbps avg, 0.26 bit/pixel
Аудио: 48 kHz, AC3 Dolby Digital, 2/0 (L,R) ch, ~224 kbps
Реклама не обнаружена !

MI

Общее
Полное имя : E:\сериал Ялта 45\01 серия.avi
Формат : AVI
Формат/Информация : Audio Video Interleave
Размер файла : 701 Мбайт
Продолжительность : 46 м.
Общий поток : 2088 Кбит/сек
Режиссёр : ELEKTRO-Am
Программа кодирования : VirtualDubMod 1.5.10.2 (build 2540/release)
Правообладатель : ELEKTRI4KA
Видео
Идентификатор : 0
Формат : MPEG-4 Visual
Профиль формата : Advanced Simple@L5
Параметр BVOP формата : 2
Параметр QPel формата : Нет
Параметр GMC формата : Без точки перехода
Параметр матрицы формата : Выборочная
Идентификатор кодека : XVID
Идентификатор кодека/Подсказка : XviD
Продолжительность : 46 м.
Битрейт : 1854 Кбит/сек
Ширина : 720 пикселей
Высота : 400 пикселей
Соотношение сторон : 16:9
Частота кадров : 25,000 кадров/сек
Цветовое пространство : YUV
Субдискретизация насыщенности : 4:2:0
Битовая глубина : 8 бит
Тип развёртки : Прогрессивная
Метод сжатия : С потерями
Бит/(Пиксели*Кадры) : 0.257
Размер потока : 622 Мбайт (89%)
Библиотека кодирования : XviD 1.2.1 (UTC 2008-12-04)
Аудио
Идентификатор : 1
Формат : AC-3
Формат/Информация : Audio Coding 3
Расширение режима : CM (complete main)
Идентификатор кодека : 2000
Продолжительность : 46 м.
Вид битрейта : Постоянный
Битрейт : 224 Кбит/сек
Каналы : 2 канала
Расположение каналов : Front: L R
Частота : 48,0 КГц
Битовая глубина : 16 бит
Метод сжатия : С потерями
Размер потока : 75,2 Мбайт (11%)
Выравнивание : Соединение по промежуткам
Продолжительность промежутка : 40 мс. (1,00 видеокадр)
Время предзагрузки промежутка : 512 мс.

Скриншоты

Показать сообщения:    

Текущее время: 26-Сен 06:32

Часовой пояс: UTC - 1


Вы не можете начинать темы
Вы не можете отвечать на сообщения
Вы не можете редактировать свои сообщения
Вы не можете удалять свои сообщения
Вы не можете голосовать в опросах
Вы не можете прикреплять файлы к сообщениям
Вы не можете скачивать файлы

!ВНИМАНИЕ!
Сайт не предоставляет электронные версии произведений, а занимается лишь коллекционированием и каталогизацией ссылок, присылаемых и публикуемых на форуме нашими читателями. Если вы являетесь правообладателем какого-либо представленного материала и не желаете, чтобы ссылка на него находилась в нашем каталоге, свяжитесь с нами, и мы незамедлительно удалим ее. Файлы для обмена на трекере предоставлены пользователями сайта, и администрация не несет ответственности за их содержание. Просьба не заливать файлы, защищенные авторскими правами, а также файлы нелегального содержания!