Важное объявление!
У Нас Все раздачи мультитрекерные, при нуле пиров в релизах, можете смело вставать на закачку!
 
Автор Сообщение

HUNTER

Стаж:
4 года 8 месяцев
Сообщений:
62116

Репутация: 101

[+] [-]
Вне форума [Профиль] [ЛС]

Ядовитый плющ: Новое совращение / Poison Ivy: The New Seduction / R-Rated
Страна: США
Жанр: триллер, драма, эротика
Год выпуска: 1997
Продолжительность: 01:32:40
Перевод 1: Профессиональный (двухголосый закадровый)
Перевод 2: Профессиональный (многоголосый закадровый)
Cубтитры: нет
Оригинальная аудиодорожка: английский
Режиссер: Курт Восс / Kurt Voss
В ролях: Джейми Прессли, Меган Эдвардс, Майкл Де Барр, Грег Вон, Сьюзен Тиррел, Тенайа Эрих, Тришали Харди, Сабрина Кристи, Мерет Ван Камп, Грегори Виньолле...
Описание: Вайлет, подросшая дочь служанки, много лет назад выгнанной из дома мистером Гриром, решила отомстить за поруганную честь своей мамочки. Она явилась в роскошный особняк Гриров и хитростью поселилась в нем. Эта девица сумела войти в их налаженную жизнь и перевернула все верх дном.
Сэмпл: http://multi-up.com/1092669
Тип релиза: WEB-DL 1080p
Контейнер: MKV
Видео: 1918x1080 (16:9), 23.976 fps, AVC, ~4939 Kbps, 0.099 bits/pixel
Аудио 1: Russian, 48.0 KHz, AC3, 2 ch, 192 Kbps
Аудио 2: Russian, 48.0 KHz, AC3, 2 ch, 192 Kbps
Аудио 3: English, 48.0 KHz, AAC LC, 2 ch, 160 Kbps

MediaInfo

General
Unique ID : 234443763976664314204335732840708738379 (0xB06039FDFC1EA17D909EF7C2B1D08D4B)
Complete name : C:\Poison Ivy - The New Seduction. WEB-DL 1080p.mkv
Format : Matroska
Format version : Version 4 / Version 2
File size : 3.61 GiB
Duration : 1h 32mn
Overall bit rate : 5 583 Kbps
Encoded date : UTC 2016-03-09 05:59:35
Writing application : mkvmerge v8.9.0 ('Father Daughter') 64bit
Writing library : libebml v1.3.3 + libmatroska v1.4.4
DURATION : 01:32:39.936000000
NUMBER_OF_FRAMES : 173748
NUMBER_OF_BYTES : 133438464
_STATISTICS_WRITING_APP : mkvmerge v8.9.0 ('Father Daughter') 64bit
_STATISTICS_WRITING_DATE_UT : 2016-03-09 05:59:35
_STATISTICS_TAGS : BPS DURATION NUMBER_OF_FRAMES NUMBER_OF_BYTES
Video
ID : 1
Format : AVC
Format/Info : Advanced Video Codec
Format profile : High@L4
Format settings, CABAC : Yes
Format settings, ReFrames : 4 frames
Codec ID : V_MPEG4/ISO/AVC
Duration : 1h 32mn
Width : 1 918 pixels
Height : 1 080 pixels
Display aspect ratio : 16:9
Frame rate mode : Constant
Frame rate : 23.976 fps
Color space : YUV
Chroma subsampling : 4:2:0
Bit depth : 8 bits
Scan type : Progressive
Language : English
Default : Yes
Forced : No
Color range : Limited
Color primaries : BT.709
Transfer characteristics : BT.709
Matrix coefficients : BT.709
Audio #1
ID : 2
Format : AC-3
Format/Info : Audio Coding 3
Mode extension : CM (complete main)
Format settings, Endianness : Big
Codec ID : A_AC3
Duration : 1h 32mn
Bit rate mode : Constant
Bit rate : 192 Kbps
Channel(s) : 2 channels
Channel positions : Front: L R
Sampling rate : 48.0 KHz
Compression mode : Lossy
Stream size : 127 MiB (3%)
Language : Russian
Default : Yes
Forced : No
Audio #2
ID : 3
Format : AC-3
Format/Info : Audio Coding 3
Mode extension : CM (complete main)
Format settings, Endianness : Big
Codec ID : A_AC3
Duration : 1h 32mn
Bit rate mode : Constant
Bit rate : 192 Kbps
Channel(s) : 2 channels
Channel positions : Front: L R
Sampling rate : 48.0 KHz
Compression mode : Lossy
Stream size : 127 MiB (3%)
Language : Russian
Default : No
Forced : No
Audio #3
ID : 4
Format : AAC
Format/Info : Advanced Audio Codec
Format profile : LC
Codec ID : A_AAC
Duration : 1h 32mn
Channel(s) : 2 channels
Channel positions : Front: L R
Sampling rate : 48.0 KHz
Compression mode : Lossy
Language : English
Default : No
Forced : No
Menu
00:00:00.000 : en:Chapter 1
00:10:03.000 : en:Chapter 2
00:20:02.000 : en:Chapter 3
00:30:00.000 : en:Chapter 4
00:40:33.000 : en:Chapter 5
00:50:17.000 : en:Chapter 6
01:00:55.000 : en:Chapter 7
01:11:28.000 : en:Chapter 8
01:20:05.000 : en:Chapter 9
01:29:30.000 : en:Chapter 10

Скриншоты


_________________
Показать сообщения:    

Текущее время: Сегодня 21:21

Часовой пояс: GMT



Вы не можете начинать темы
Вы не можете отвечать на сообщения
Вы не можете редактировать свои сообщения
Вы не можете удалять свои сообщения
Вы не можете голосовать в опросах
Вы не можете прикреплять файлы к сообщениям
Вы не можете скачивать файлы
Наши партнеры: интернет магазин Ивановского трикотажа textilla.ru