Ивановский Торрент трекер
Яндекс.Погода
 

[Цитировать]
HUNTER

Ядерная семья / Сталкеры / Nuclear Family
Страна: США
Студия: Cocksure Entertainment
Жанр: фантастика, триллер
Год выпуска: 2012
Продолжительность: 01:35:45
Перевод: Профессиональный (многоголосый закадровый) Amedia Premium HD
Cубтитры: нет
Оригинальная аудиодорожка: английский
Режиссер: Кайл Ранкин / Kyle Rankin
В ролях: Корин Немек, Кинси Пэкэрд, Полин Кон, Даниэлла Харрис, Шарон Лоуренс, Рэй Уайз, Ли Аренберг, Паркер Крофт, Синди Вела, Джим Коди Уильямс, Дженнифер Бланк
Описание: История молодой пары, Джона и Линн, которые пытаются выжить в лесу после ядерной катастрофы. Со своей 11-летней дочерью Полин они находятся постоянно в движении и пытаются разыскать пропавшего без вести 8-летнего сына Гранта. Тем временем, общество и моральные ценности находятся в состоянии распада, и семья должна быть на шаг впереди берсеркеров: жестоких людей, для которых разбой, изнасилования и разрушения стали образом жизни. Фильм снят как пилот к одноименному сериалу.
II Сэмпл II IMDB II
Тип релиза: HDTV 1080i
Контейнер: TS
Видео: AVC 1920x1080 (16:9) 25.0fps Bit rate 6649Kbps High@L4.0
Аудио 1: AC3 48.0 KHz 2ch. 192kbps rus mvo Amedia Premium HD
Аудио 2: AC3 48.0 KHz 2ch. 192kbps eng

MediaInfo

Общее
Идентификатор : 1 (0x1)
Полное имя : E:\torrent\Nuclear Family.2011.HDTV.1080i.ts
Формат : MPEG-TS
Размер файла : 4,95 Гбайт
Продолжительность : 1 ч. 35 м.
Режим общего битрейта : Переменный
Общий поток : 7403 Кбит/сек
Максимальный общий битрейт : 35,5 Мбит/сек
Видео
Идентификатор : 4113 (0x1011)
Идентификатор меню : 1 (0x1)
Формат : AVC
Формат/Информация : Advanced Video Codec
Профиль формата : High@L4.0
Параметр CABAC формата : Да
Параметр ReFrames формата : 4 кадра
Идентификатор кодека : 27
Продолжительность : 1 ч. 35 м.
Вид битрейта : Переменный
Битрейт : 6649 Кбит/сек
Максимальный битрейт : 40,0 Мбит/сек
Ширина : 1920 пикселей
Высота : 1080 пикселей
Соотношение сторон : 16:9
Частота кадров : 25,000 кадров/сек
Стандарт вещания : Component
Цветовое пространство : YUV
Субдискретизация насыщенности : 4:2:0
Битовая глубина : 8 бит
Тип развёртки : MBAFF
Бит/(Пиксели*Кадры) : 0.128
Размер потока : 4,45 Гбайт (90%)
Основные цвета : BT.709
Характеристики трансфера : BT.709
Коэффициенты матрицы : BT.709
Аудио #1
Идентификатор : 4352 (0x1100)
Идентификатор меню : 1 (0x1)
Формат : AC-3
Формат/Информация : Audio Coding 3
Расширение режима : CM (complete main)
Параметр Endianness формата : Big
Идентификатор кодека : 129
Продолжительность : 1 ч. 35 м.
Вид битрейта : Постоянный
Битрейт : 192 Кбит/сек
Каналы : 2 канала
Расположение каналов : Front: L R
Частота : 48,0 КГц
Битовая глубина : 16 бит
Метод сжатия : С потерями
Размер потока : 132 Мбайт (3%)
Аудио #2
Идентификатор : 4353 (0x1101)
Идентификатор меню : 1 (0x1)
Формат : AC-3
Формат/Информация : Audio Coding 3
Расширение режима : CM (complete main)
Параметр Endianness формата : Big
Идентификатор кодека : 129
Продолжительность : 1 ч. 35 м.
Вид битрейта : Постоянный
Битрейт : 192 Кбит/сек
Каналы : 2 канала
Расположение каналов : Front: L R
Частота : 48,0 КГц
Битовая глубина : 16 бит
Метод сжатия : С потерями
Размер потока : 132 Мбайт (3%)

Скриншот с названием фильма

Скриншоты


Показать сообщения:    

Текущее время: 24-Окт 04:58

Часовой пояс: UTC - 1


Вы не можете начинать темы
Вы не можете отвечать на сообщения
Вы не можете редактировать свои сообщения
Вы не можете удалять свои сообщения
Вы не можете голосовать в опросах
Вы не можете прикреплять файлы к сообщениям
Вы не можете скачивать файлы

!ВНИМАНИЕ!
Сайт не предоставляет электронные версии произведений, а занимается лишь коллекционированием и каталогизацией ссылок, присылаемых и публикуемых на форуме нашими читателями. Если вы являетесь правообладателем какого-либо представленного материала и не желаете, чтобы ссылка на него находилась в нашем каталоге, свяжитесь с нами, и мы незамедлительно удалим ее. Файлы для обмена на трекере предоставлены пользователями сайта, и администрация не несет ответственности за их содержание. Просьба не заливать файлы, защищенные авторскими правами, а также файлы нелегального содержания!