Важное объявление!
У Нас Все раздачи мультитрекерные, при нуле пиров в релизах, можете смело вставать на закачку!
Статистика раздачи
Размер:     |    Зарегистрирован:     |    Скачан:     |   
Нет
 
     
 
 
Автор Сообщение

HUNTER

Стаж:
5 лет
Сообщений:
67945

Репутация: 101

[+] [-]
Вне форума [Профиль] [ЛС]

Юрий Гагарин-
Год выпуска: 1969
Страна: СССР
Жанр: документальный
Продолжительность: 00:49:32
Перевод: не требуется-Режиссер: Ю. Сальников-Описание: Фильм посвящен памяти первого летчика-космонавта СССР, Героя Советского Союза Юрия Алексеевича Гагарина.
Лента разбита на четыре части. Первая называется "Встреча" и рассказывает о встрече Гагарина после полета в космос, его поездках по всему миру как первого космонавта Земли. Вторая часть называется "Перед стартом" и повествует родине Гагарина, его учебе в школе и техникуме, летном училище, о том, как он оказался в отряде космонавтов; содержит воспоминания его жены Валентины и однополчанина Алексея Леонова. Третья часть – "Полет" – о Королеве, кратко о других членах отряда космонавтов: Быковском, Николаеве, Титове, Поповиче, о старте первого космического корабля с космонавтом на борту. Заключительная часть рассказывает о трагической гибели Гагарина во время испытательного полета...-Доп. информация: Производство Творческого объединения "Экран".
В фильме использованы материалы Государственного архива кинофотодокументов СССР, ЦСДФ, студии “Центрнаучфильм”, Чехословацкого телевидения, Ленинградской, Нижне-Волжской, Дальневосточной студий кинохроники и личных архивов семей А. Гагарина и Ю. Гагарина.-Качество: DVB
Формат: MPEG-PS
Видео: MPEG2, 720x576@768x576 (4:3), 25 fps, ~4844 Kbps
Аудио: MP2, 48 KHz, 2 ch, 192 Kbps-

MediaInfo

General
Complete name : L:\Юрий Гагарин (1969) [DVB].mpg
Format : MPEG-PS
File size : 1.78 GiB
Duration : 49mn 32s
Overall bit rate mode : Variable
Overall bit rate : 5 139 Kbps
Video
ID : 224 (0xE0)
Format : MPEG Video
Format version : Version 2
Format profile : Main@Main
Format settings, BVOP : Yes
Format settings, Matrix : Custom
Format settings, GOP : Variable
Duration : 49mn 32s
Bit rate mode : Variable
Bit rate : 4 844 Kbps
Maximum bit rate : 15.0 Mbps
Width : 720 pixels
Height : 576 pixels
Display aspect ratio : 4:3
Frame rate : 25.000 fps
Standard : PAL
Color space : YUV
Chroma subsampling : 4:2:0
Bit depth : 8 bits
Scan type : Interlaced
Scan order : Top Field First
Compression mode : Lossy
Bits/(Pixel*Frame) : 0.467
Time code of first frame : 00:00:00:00
Time code source : Group of pictures header
Stream size : 1.68 GiB (94%)
Audio
ID : 192 (0xC0)
Format : MPEG Audio
Format version : Version 1
Format profile : Layer 2
Duration : 49mn 32s
Bit rate mode : Constant
Bit rate : 192 Kbps
Channel(s) : 2 channels
Sampling rate : 48.0 KHz
Compression mode : Lossy
Delay relative to video : -40ms
Stream size : 68.0 MiB (4%)

_________________
Показать сообщения:    

Текущее время: Сегодня 02:50

Часовой пояс: GMT



Вы не можете начинать темы
Вы не можете отвечать на сообщения
Вы не можете редактировать свои сообщения
Вы не можете удалять свои сообщения
Вы не можете голосовать в опросах
Вы не можете прикреплять файлы к сообщениям
Вы не можете скачивать файлы