Ивановский Торрент трекер
Яндекс.Погода
 

[Цитировать]
HUNTER

Эхо Террора | Zankyou no Terror | Terror in Resonance
-Год выпуска: 2014
Страна: Япония
Жанр: приключения.
-Режиссёр: Ватанабэ Синъитиро.
Студия: MAPPA (подробнее...)

-Перевод:
Русские субтитры:
[Timecraft + Ambiente]

  • Перевод: Алекс Миф | Воздух
  • Редактура | Оформление: Воздух
  • QC | Лирика: Матадор
    -Описание: В один из летних деньков Токио содрогается от крупного террористического акта. За этим стоит некая организация "Сфинкс", появившаяся буквально из ниоткуда. Вот только состоит эта организация всего из двух школьников, Шина Коконоэ «Девять» и Фуюджи Куми «Двенадцать», а также неожиданно присоединившейся к ним Рисы Мишимы. Пока все ищут злодея, эта троица делает первый ход в игре, частью которой стало все население Японии. «В этом мире необходимо уметь нажать на курок» – с этим девизом и начинается грандиозная «игра». World Art.-Качество: HDTVRip | Формат: MKV | Тип видео: без хардсаба | Продолжительность: ТВ (>11 эп.), 25 мин. | Видео:
    Видео кодек: H.264
    Аудио кодек: AAC
    Видео: H.264; 1280x720; ~2273Kbps, 23.976fps; (8 bit)
    Аудио: JAP, AAC; 48000Hz; ~218Kbps (2ch);

    Скриншоты [превью]

-
Название эпизодов
01.Falling.

-
MediaInfo

Общее
Полное имя : C:\Users\Home PC\Videos\Аниме\Весна\Zankyou no Terror\Zankyou no Terror - 01.mp4
Формат : MPEG-4
Профиль формата : Base Media
Идентификатор кодека : isom
Размер файла : 410 Мбайт
Продолжительность : 22 м.
Режим общего битрейта : Переменный
Общий поток : 2495 Кбит/сек
Дата кодирования : UTC 2014-07-10 22:00:23
Дата пометки : UTC 2014-07-10 22:00:23
Видео
Идентификатор : 1
Формат : AVC
Формат/Информация : Advanced Video Codec
Профиль формата : Main@L4.1
Параметр CABAC формата : Да
Параметр ReFrames формата : 4 кадра
Идентификатор кодека : avc1
Идентификатор кодека/Информация : Advanced Video Coding
Продолжительность : 22 м.
Битрейт : 2273 Кбит/сек
Максимальный битрейт : 22,8 Мбит/сек
Ширина : 1280 пикселей
Высота : 720 пикселей
Соотношение сторон : 16:9
Режим частоты кадров : Постоянный
Частота кадров : 23,976 кадра/сек
Цветовое пространство : YUV
Субдискретизация насыщенности : 4:2:0
Битовая глубина : 8 бит
Тип развёртки : Прогрессивная
Бит/(Пиксели*Кадры) : 0.103
Размер потока : 374 Мбайт (91%)
Библиотека кодирования : x264 core 142 r2431+42 c69a006 tMod [8-bit@4:2:0 X86]
Настройки программы : cabac=1 / ref=3 / deblock=1:0:0 / analyse=0x1:0x111 / me=hex / subme=7 / psy=1 / fade_compensate=0.00 / psy_rd=1.00:0.00 / mixed_ref=1 / me_range=16 / chroma_me=1 / trellis=1 / 8x8dct=0 / cqm=0 / deadzone=21,11 / fast_pskip=1 / chroma_qp_offset=-2 / threads=8 / lookahead_threads=1 / sliced_threads=0 / nr=0 / decimate=1 / interlaced=0 / bluray_compat=0 / constrained_intra=0 / fgo=0 / bframes=16 / b_pyramid=2 / b_adapt=1 / b_bias=0 / direct=1 / weightb=1 / open_gop=0 / weightp=2 / keyint=240 / keyint_min=1 / scenecut=40 / intra_refresh=0 / rc_lookahead=40 / rc=crf / mbtree=1 / crf=20.0000 / qcomp=0.60 / qpmin=0:0:0 / qpmax=69:69:69 / qpstep=4 / ip_ratio=1.40 / aq=1:1.00 / aq-sensitivity=10.00 / aq-factor=1.00:1.00:1.00 / aq2=0 / aq3=0
Дата кодирования : UTC 2014-07-10 22:00:16
Дата пометки : UTC 2014-07-10 22:00:24
Основные цвета : BT.709
Характеристики трансфера : BT.709
Коэффициенты матрицы : BT.709
Аудио
Идентификатор : 2
Формат : AAC
Формат/Информация : Advanced Audio Codec
Профиль формата : LC
Идентификатор кодека : 40
Продолжительность : 22 м.
Вид битрейта : Переменный
Битрейт : 218 Кбит/сек
Максимальный битрейт : 254 Кбит/сек
Каналы : 2 канала
Расположение каналов : Front: L R
Частота : 48,0 КГц
Метод сжатия : С потерями
Размер потока : 35,8 Мбайт (9%)
Язык : Japanese
Дата кодирования : UTC 2014-07-10 21:47:21
Дата пометки : UTC 2014-07-10 22:00:24
-Внимание! Это обновляемая раздача. Серии добавляются по мере выхода русских субтитров.-
Показать сообщения:    

Текущее время: 24-Окт 03:16

Часовой пояс: UTC - 1


Вы не можете начинать темы
Вы не можете отвечать на сообщения
Вы не можете редактировать свои сообщения
Вы не можете удалять свои сообщения
Вы не можете голосовать в опросах
Вы не можете прикреплять файлы к сообщениям
Вы не можете скачивать файлы

!ВНИМАНИЕ!
Сайт не предоставляет электронные версии произведений, а занимается лишь коллекционированием и каталогизацией ссылок, присылаемых и публикуемых на форуме нашими читателями. Если вы являетесь правообладателем какого-либо представленного материала и не желаете, чтобы ссылка на него находилась в нашем каталоге, свяжитесь с нами, и мы незамедлительно удалим ее. Файлы для обмена на трекере предоставлены пользователями сайта, и администрация не несет ответственности за их содержание. Просьба не заливать файлы, защищенные авторскими правами, а также файлы нелегального содержания!