Ивановский Торрент трекер
Яндекс.Погода
Статистика раздачи
Размер:  4.89 GB   |    Зарегистрирован:  2 года 3 месяца   |    Скачан:  0 раз

Полного источника не было: Никогда

 
     
 
 
 

[Цитировать]
HUNTER

Эффи / Effie Gray
Страна: Великобритания
Студия: Sovereign Films (II), Universal Pictures Home Entertainment (UPHE)
Жанр: Драма
Год выпуска: 2014
Продолжительность: 01:48:25
Перевод: Профессиональный (дублированный)
Cубтитры: Rus, Eng
Оригинальная аудиодорожка: английский
Режиссер: Ричард Лэкстон / Richard Laxton
В ролях: Дакота Фэннинг, Том Стёрридж, Эмма Томпсон, Джули Уолтерс, Клаудия Кардинале, Робби Колтрейн, Дэвид Суше, Дерек Джекоби, Рассел Тови, Джеймс Фокс
Описание: Фильм о непростых супружеских отношениях, о любовном треугольнике между британским поэтом, художником, критиком Джоном Рескином, его молодой женой Эффи и художником-прерафаэлитом, автором знаменитой «Офелии», Джоном Эвереттом Милле.

Тип релиза: BDRip 720p
Контейнер: MKV
Видео: MPEG-4 AVC, 5302 Кбит/с, 1280x534, 24.000 fps
Аудио: Rus, AC3, 384 kb/s (2 ch), 48 kHz
Аудио 2: Eng, AC3, 640 kb/s (6 ch), 48 kHz
Формат субтитров: softsub (SRT)

MediaInfo

x264 [info]: frame I:948 Avg QP:13.01 size: 89973
x264 [info]: frame P:26171 Avg QP:14.15 size: 50285
x264 [info]: frame B:129004 Avg QP:15.19 size: 23353
Format : Matroska
Format version : Version 4 / Version 2
File size : 4.89 GiB
Duration : 1h 48mn
Overall bit rate : 6 455 Kbps
Movie name : Эффи. (Tonik)
Encoded date : UTC 2015-08-05 08:43:34
Writing application : mkvmerge v7.1.0 ('Good Love') 64bit built on Jul 27 2014 13:06:55
Writing library : libebml v1.3.0 + libmatroska v1.4.1
_STATISTICS_WRITING_APP : mkvmerge v7.1.0 ('Good Love') 64bit built on Jul 27 2014 13:06:55
_STATISTICS_WRITING_DATE_UTC : 2015-08-05 08:43:34
_STATISTICS_TAGS : BPS DURATION NUMBER_OF_FRAMES NUMBER_OF_BYTES
DURATION : 01:40:31.212000000
NUMBER_OF_FRAMES : 1015
NUMBER_OF_BYTES : 51641
Video
ID : 1
Format : AVC
Format/Info : Advanced Video Codec
Format profile : High@L4.1
Format settings, CABAC : Yes
Format settings, ReFrames : 12 frames
Codec ID : V_MPEG4/ISO/AVC
Duration : 1h 48mn
Bit rate : 5 302 Kbps
Width : 1 280 pixels
Height : 534 pixels
Display aspect ratio : 2.40:1
Frame rate mode : Constant
Frame rate : 24.000 fps
Color space : YUV
Chroma subsampling : 4:2:0
Bit depth : 8 bits
Scan type : Progressive
Bits/(Pixel*Frame) : 0.323
Stream size : 4.02 GiB (82%)
Writing library : x264 core 146 r2538kMod 121396c
Encoding settings : cabac=1 / ref=12 / deblock=1:-3:-3 / analyse=0x3:0x133 / me=umh / subme=10 / psy=1 / fade_compensate=0.00 / psy_rd=1.05:0.00 / mixed_ref=1 / me_range=24 / chroma_me=1 / trellis=2 / 8x8dct=1 / cqm=0 / deadzone=21,11 / fast_pskip=0 / chroma_qp_offset=-2 / threads=12 / lookahead_threads=3 / sliced_threads=0 / nr=0 / decimate=0 / interlaced=0 / bluray_compat=0 / constrained_intra=0 / fgo=0 / bframes=11 / b_pyramid=2 / b_adapt=2 / b_bias=0 / direct=3 / weightb=1 / open_gop=0 / weightp=2 / keyint=250 / keyint_min=24 / scenecut=40 / intra_refresh=0 / rc=crf / mbtree=0 / crf=15.8000 / qcomp=0.70 / qpmin=0 / qpmax=69 / qpstep=4 / ip_ratio=1.20 / pb_ratio=1.20 / aq=1:0.75
Language : English
Default : Yes
Forced : No
_STATISTICS_WRITING_APP : mkvmerge v7.1.0 ('Good Love') 64bit built on Jul 27 2014 13:06:55
_STATISTICS_WRITING_DATE_UTC : 2015-08-05 08:43:34
_STATISTICS_TAGS : BPS DURATION NUMBER_OF_FRAMES NUMBER_OF_BYTES
DURATION : 01:48:25.125000000
NUMBER_OF_FRAMES : 156123
NUMBER_OF_BYTES : 4413906966
Audio #1
ID : 2
Format : AC-3
Format/Info : Audio Coding 3
Mode extension : CM (complete main)
Format settings, Endianness : Big
Codec ID : A_AC3
Duration : 1h 48mn
Bit rate mode : Constant
Bit rate : 384 Kbps
Channel(s) : 2 channels
Channel positions : Front: L R
Sampling rate : 48.0 KHz
Bit depth : 16 bits
Compression mode : Lossy
Stream size : 298 MiB (6%)
Language : Russian
Default : Yes
Forced : No
Audio #2
ID : 3
Format : AC-3
Format/Info : Audio Coding 3
Mode extension : CM (complete main)
Format settings, Endianness : Big
Codec ID : A_AC3
Duration : 1h 48mn
Bit rate mode : Constant
Bit rate : 640 Kbps
Channel(s) : 6 channels
Channel positions : Front: L C R, Side: L R, LFE
Sampling rate : 48.0 KHz
Bit depth : 16 bits
Compression mode : Lossy
Stream size : 496 MiB (10%)
Language : English
Default : No
Forced : No
Text #1
ID : 4
Format : UTF-8
Codec ID : S_TEXT/UTF8
Codec ID/Info : UTF-8 Plain Text
Title : Forced
Language : Russian
Default : Yes
Forced : No
Text #2
ID : 5
Format : UTF-8
Codec ID : S_TEXT/UTF8
Codec ID/Info : UTF-8 Plain Text
Language : Russian
Default : No
Forced : No
Text #3
ID : 6
Format : UTF-8
Codec ID : S_TEXT/UTF8
Codec ID/Info : UTF-8 Plain Text
Language : English
Default : No
Forced : No
Menu
00:00:00.000 : en:00:00:00.000
00:05:19.000 : en:00:05:19.000
00:15:21.333 : en:00:15:21.333
00:24:01.625 : en:00:24:01.625
00:34:30.917 : en:00:34:30.917
00:42:37.125 : en:00:42:37.125
00:52:48.167 : en:00:52:48.167
01:01:46.500 : en:01:01:46.500
01:08:01.792 : en:01:08:01.792
01:18:17.042 : en:01:18:17.042
01:34:24.750 : en:01:34:24.750
01:41:10.042 : en:01:41:10.042

Скриншоты

[iv-torrents.ru].t48251.torrent
Торрент: Зарегистрирован [ 2015-08-17 15:16 ] · ED6E02E5A58A206A531960C65DA8C917215B48E7

Скачать .torrent

Скачать

13 KB

Статус: проверено
Скачан: 0 раз
Размер: 4.89 GB
terms.php


Показать сообщения:    

Текущее время: 16-Дек 13:17

Часовой пояс: UTC ± 0


Вы не можете начинать темы
Вы не можете отвечать на сообщения
Вы не можете редактировать свои сообщения
Вы не можете удалять свои сообщения
Вы не можете голосовать в опросах
Вы не можете прикреплять файлы к сообщениям
Вы можете скачивать файлы

!ВНИМАНИЕ!
Сайт не предоставляет электронные версии произведений, а занимается лишь коллекционированием и каталогизацией ссылок, присылаемых и публикуемых на форуме нашими читателями. Если вы являетесь правообладателем какого-либо представленного материала и не желаете, чтобы ссылка на него находилась в нашем каталоге, свяжитесь с нами, и мы незамедлительно удалим ее. Файлы для обмена на трекере предоставлены пользователями сайта, и администрация не несет ответственности за их содержание. Просьба не заливать файлы, защищенные авторскими правами, а также файлы нелегального содержания!