Важное объявление!
У Нас Все раздачи мультитрекерные, при нуле пиров в релизах, можете смело вставать на закачку!
Статистика раздачи
Размер:     |    Зарегистрирован:     |    Скачан:     |   
Нет
 
     
 
 
Автор Сообщение

Roxi

Стаж:
4 года 11 месяцев
Сообщений:
17
Вне форума [Профиль] [ЛС]

Эффект Бэмби / Bambieffekten / The Bambi Effect-
Страна: Норвегия
Жанр: драма
Год выпуска: 2011
Продолжительность: 01:11:31-Перевод: субтитры
Cубтитры: русские (hurin), английские
Оригинальная аудиодорожка: норвежский-Режиссер: Эйстейн Стене / �ystein Stene
В ролях: Юлия Шахт (...Вероника), Виктория Винге (...Сесилия), Кнут Йонер (...Эйрик), Ким С. Фальк-Йёргенсен (...Беньямин), Кристоффер Йонер (...Юнас), Ане Даль Торп (...продавщица в супермаркете).-Описание: Вероника и Сесилия знакомятся в интернете и решают вместе совершить самоубийство. Чтобы реализовать свой план, они отправляются в отдалённый коттедж на берегу океана. Вместо предсмертных записок девушки решают оставить видеозаписи последних дней своей жизни. Вскоре, однако, выясняется, что их потребности в этот период времени существенно разнятся. Всё усложняется ещё больше, когда на сцене появляются ребята из коттеджа по соседству...
Доп. информация: Трейлер
Фильм экспериментальный; в норвежском прокате провалился.-Качество видео: DVDRip
Формат видео: AVI
Видео: XviD, 704х384 (16:9), 25.000 fps, 2 274 Kbps
Аудио: AC-3, 48.0 KHz, 448 Kbps constant, 6 channels
Формат субтитров: softsub (SRT)

MediaInfo

General
Complete name : C:\
Format : AVI
Format/Info : Audio Video Interleave
File size : 1.36 GiB
Duration : 1h 11mn
Overall bit rate : 2 732 Kbps
Writing application : VirtualDubMod 1.5.10.2 (build 2540/release)
Writing library : VirtualDubMod build 2540/release
Video
ID : 0
Format : MPEG-4 Visual
Format profile : Advanced Simple@L5
Format settings, BVOP : Yes
Format settings, QPel : No
Format settings, GMC : No warppoints
Format settings, Matrix : Default (H.263)
Muxing mode : Packed bitstream
Codec ID : XVID
Codec ID/Hint : XviD
Duration : 1h 11mn
Bit rate : 2 274 Kbps
Width : 704 pixels
Height : 384 pixels
Display aspect ratio : 16:9
Frame rate : 25.000 fps
Resolution : 8 bits
Colorimetry : 4:2:0
Scan type : Progressive
Bits/(Pixel*Frame) : 0.336
Stream size : 1.14 GiB (83%)
Writing library : XviD 1.0.3 (UTC 2004-12-20)
Audio
ID : 1
Format : AC-3
Format/Info : Audio Coding 3
Codec ID : 2000
Duration : 1h 11mn
Bit rate mode : Constant
Bit rate : 448 Kbps
Channel(s) : 6 channels
Channel positions : Front: L C R, Surround: L R, LFE
Sampling rate : 48.0 KHz
Stream size : 229 MiB (16%)
Alignment : Split accross interleaves
Interleave, duration : 40 ms (1.00 video frame)
Interleave, preload duration : 500 ms

Скриншоты



Образец субтитров

1
00:00:23,360 --> 00:00:26,397
Ты Сесилия?
-Да.
2
00:00:26,840 --> 00:00:28,876
А я Вероника.
3
00:00:33,960 --> 00:00:37,191
Ты уже начала снимать?
-Ага.
4
00:00:40,000 --> 00:00:42,389
Хочешь камеру подержать?
-Да, конечно.
5
00:00:46,680 --> 00:00:49,274
Ты меня такой себе представляла?
6
00:00:51,080 --> 00:00:52,832
Ну как я, ничего?
7
00:00:53,040 --> 00:00:57,318
Да. Но ты ведь могла говорить о себе
одно, а оказаться совсем другой.
8
00:00:57,440 --> 00:01:01,831
Какой?
-Ну, скажем, стариком каким-нибудь.
9
00:01:12,080 --> 00:01:16,790
Я всё думаю, может, нам
ещё что-нибудь обсудить надо?
10
00:01:17,280 --> 00:01:19,316
Например?
11
00:01:20,000 --> 00:01:22,514
Разве три месяца -
это не слишком долго?
12
00:01:27,280 --> 00:01:30,317
Немного времени не повредит.
13
00:01:40,160 --> 00:01:42,720
Если бы ты могла поехать куда
угодно, куда бы поехала?
14
00:01:44,760 --> 00:01:47,320
Я ведь сейчас здесь с тобой.

_________________
Если меня мама учила быть милой,нежной, культурной, это не значит, что я не врежу ногой в глаз, как меня учил папа.
Показать сообщения:    

Текущее время: Сегодня 08:47

Часовой пояс: GMT



Вы не можете начинать темы
Вы не можете отвечать на сообщения
Вы не можете редактировать свои сообщения
Вы не можете удалять свои сообщения
Вы не можете голосовать в опросах
Вы не можете прикреплять файлы к сообщениям
Вы не можете скачивать файлы