Важное объявление!
У Нас Все раздачи мультитрекерные, при нуле пиров в релизах, можете смело вставать на закачку!
 
Автор Сообщение

HUNTER

Стаж:
4 года 9 месяцев
Сообщений:
65008

Репутация: 101

[+] [-]
Вне форума [Профиль] [ЛС]

Это - Англия / This Is England-
Год выпуска: 2006
Страна: Великобритания
Жанр: Драма
Продолжительность: 1:42:17
Перевод: Профессиональный (многоголосый, закадровый)
Русские субтитры: есть (ненормативная лексика)-Режиссер: Шэйн Медоуз / Shane Meadows
В ролях: Томас Тургуз, Стивен Грэхам, Джо Хартли, Эндрю Шим, Джозеф Гилгун, Эндрю Эллис, Перри Бенсон
Описание: Северная Англия, 1983 год. Одиннадцатилетний подросток Шон Филд, потерявший отца на бессмысленной Фолклендской войне, переживает тяжелый адаптационный период, подвергаясь жестоким издевательствам со стороны своих одноклассников и окружающих.
Одинокий и запутавшийся, он встречает группу подростков, которые посвящают его в таинство общества скинхедов. Под руководством безжалостного фашиста по имени Комбо он выплескивает свою злобу и боль, направив потоки жестокости и агрессии против тех жителей третьего мира, которые имели несчастье обосноваться на берегах Соединенного Королевства.-Качество: BDRip
Формат: MKV
Видео кодек: H.264
Аудио кодек: AC3, DTS
Видео: 1920x1036, 24.000 fps, 12.9 Mbps - Rip EuReKA
Аудио: Rus AC3, 448 Kbps, 6 ch, 48.0 KHz
Аудио: Eng DTS, 1510 Kbps, 6 ch, 48.0 KHz
Субтитры: русские, английские, немецкие- -

MediaInfo

General
Complete name : I:\Фильмы\This.Is.England.2006.BluRay.1080p.x264.dxva-EuReKA.mkv
Format : Matroska
File size : 10.8 GiB
Duration : 1h 42mn
Overall bit rate : 15.1 Mbps
Encoded date : UTC 2010-06-29 21:39:52
Writing application : mkvmerge v3.0.0 ('Hang up your Hang-Ups') built on Dec 12 2009 15:20:35
Writing library : libebml v0.7.9 + libmatroska v0.8.1
Video
ID : 1
Format : AVC
Format/Info : Advanced Video Codec
Format profile : High@L4.1
Format settings, CABAC : Yes
Format settings, ReFrames : 4 frames
Muxing mode : Container profile=Unknown@4.1
Codec ID : V_MPEG4/ISO/AVC
Duration : 1h 42mn
Bit rate : 12.9 Mbps
Width : 1 920 pixels
Height : 1 036 pixels
Display aspect ratio : 1.853
Frame rate : 24.000 fps
Resolution : 24 bits
Colorimetry : 4:2:0
Scan type : Progressive
Bits/(Pixel*Frame) : 0.270
Stream size : 9.20 GiB (85%)
Title : x264 - crf encode
Writing library : x264 core 64 r987M e71168d
Encoding settings : cabac=1 / ref=4 / deblock=1:-2:-2 / analyse=0x3:0x113 / me=umh / subme=7 / psy_rd=1.0:0.0 / brdo=1 / mixed_ref=1 / me_range=16 / chroma_me=1 / trellis=2 / 8x8dct=1 / cqm=0 / deadzone=21,11 / chroma_qp_offset=-2 / threads=6 / nr=0 / decimate=0 / mbaff=0 / bframes=3 / b_pyramid=1 / b_adapt=1 / b_bias=0 / direct=3 / wpredb=1 / bime=1 / keyint=250 / keyint_min=25 / scenecut=40(pre) / rc=crf / crf=24.0 / qcomp=0.60 / qpmin=10 / qpmax=51 / qpstep=4 / vbv_maxrate=38000 / vbv_bufsize=30000 / ip_ratio=1.40 / pb_ratio=1.30 / aq=1:1.00
Language : English
Audio #1
ID : 2
Format : AC-3
Format/Info : Audio Coding 3
Codec ID : A_AC3
Duration : 1h 42mn
Bit rate mode : Constant
Bit rate : 448 Kbps
Channel(s) : 6 channels
Channel positions : Front: L C R, Surround: L R, LFE
Sampling rate : 48.0 KHz
Video delay : 41s 430ms
Stream size : 328 MiB (3%)
Title : AC3 - 448 kbit/sec
Language : Russian
Audio #2
ID : 3
Format : DTS
Format/Info : Digital Theater Systems
Codec ID : A_DTS
Duration : 1h 42mn
Bit rate mode : Constant
Bit rate : 1 510 Kbps
Channel(s) : 6 channels
Channel positions : Front: L C R, Surround: L R, LFE
Sampling rate : 48.0 KHz
Resolution : 24 bits
Stream size : 1.08 GiB (10%)
Title : DTS - 1536 kbit/sec
Language : English
Text #1
ID : 4
Format : UTF-8
Codec ID : S_TEXT/UTF8
Codec ID/Info : UTF-8 Plain Text
Language : Russian
Text #2
ID : 5
Format : UTF-8
Codec ID : S_TEXT/UTF8
Codec ID/Info : UTF-8 Plain Text
Language : English
Text #3
ID : 6
Format : UTF-8
Codec ID : S_TEXT/UTF8
Codec ID/Info : UTF-8 Plain Text
Language : Dutch

Source vs Encode

SOURCE versus ENCODE

Скриншоты



_________________
Показать сообщения:    

Текущее время: Сегодня 16:54

Часовой пояс: GMT



Вы не можете начинать темы
Вы не можете отвечать на сообщения
Вы не можете редактировать свои сообщения
Вы не можете удалять свои сообщения
Вы не можете голосовать в опросах
Вы не можете прикреплять файлы к сообщениям
Вы не можете скачивать файлы